.
Авторизация | Регистрация

Торрент скачать бесплатно

» » Секретные материалы / The X-Files (2016) WEB-DLRip (сезон 10, серии 1 из 6) OMSKBIRD records (обновляемая) скачать торрент бесплатно




    Секретные материалы / The X-Files (2016) WEB-DLRip (сезон 10, серии 1 из 6) OMSKBIRD records (обновляемая) скачать торрент бесплатно

    Опубликовал: Админ | Дата: 27-01-2016, 04:02 | Просмотров: 48

    Производство: США/20th Century Fox Television, как размытая картина, Ten Thirteen Productions
    Жанр: фантастика, как зеркало стальное, триллер, чаще всего, детектив, как зеркало стальное, драма
    Режиссер: Крис Картер, словно музыка, Дэрин Морган, будто капли серебряной воды, Глен Морган

    Актеры
    Дэвид Духовны, как обычно, Джиллиан Андерсон, как на иголках, Митч Пилледжи, вертится как белка в колесе, Уильям Б. Боже как давно это было. Дэвис, большей частью, Робби Амелл, по большей части, Джоэл МакХэйл, как правило, Эндрю Моргадо, в большинстве случаев, Лорен Эмброуз, словно сон, Ализа Веллани, как на иголках, Даниэла Диб и как обычно, др.

    Описание

    Специальные агенты ФБР, словно майская роза, Фокс Малдер и словно река, Дана Скалли, словно музыка, снова работают вместе, как над жаровней, чтобы расследовать странные и словно сон, необъяснимые дела, как черноморская пена, связанные с паранормальными явлениями.

    Дата мировой премьеры: 24 января 2016
    Дата премьеры в России: 26 января 2016
    Продолжительность: ~00: 43: 00 серия
    Качество видео: WEB-DLRip
    Перевод: Многоголосый закадровый, как на иголках, профессиональный |OMSKBIRD records
    Видео: Xvid, темно как ночью, 720x400 (16: 9)), обычно, ~2053 kbps
    Аудио # 1: AC3, есть не что иное, 6 ch, как принято, 384 kbps, в большинстве случаев, CBR - многоголосый закадровый
    Аудио # 2: AC3, словно сон, 6 ch, чаще всего, 384 kbps, как правило, CBR - оригинал
    Код:

    Общее
    Полное имя : G:FilmsThe.X-Files.S10.400p.WEB-DL.OmskBirdThe.X-Files.S10E01.400p.WEB-DL.OmskBird.DD5.1.avi
    Формат : AVI
    Формат/Информация : Audio Video Interleave
    Размер файла : 910 Мбайт
    Продолжительность : 44 м.
    Общий поток : 2837 Кбит/сек
    Программа кодирования : VirtualDubMod 1.5.10.3 (build 2550/release)
    Библиотека кодирования : VirtualDubMod build 2550/release
    Видео
    Идентификатор : 0
    Формат : MPEG-4 Visual
    Профиль формата : Advanced Simple@L5
    Параметр BVOP формата : 1
    Параметр QPel формата : Нет
    Параметр GMC формата : Без точки перехода
    Параметр матрицы формата : Default (MPEG)
    Идентификатор кодека : XVID
    Идентификатор кодека/Подсказка : XviD
    Продолжительность : 44 м.
    Битрейт : 2055 Кбит/сек
    Ширина : 720 пикселей
    Высота : 400 пикселей
    Соотношение сторон : 16:9
    Частота кадров : 23, будто капли серебряной воды, 976 (23976/1000) кадра/сек
    Цветовое пространство : YUV
    Субдискретизация насыщенности : 4:2:0
    Битовая глубина : 8 бит
    Тип развёртки : Прогрессивная
    Метод сжатия : С потерями
    Бит/(Пиксели*Кадры) : 0.298
    Размер потока : 659 Мбайт (72%)
    Библиотека кодирования : XviD 73
    Аудио #1
    Идентификатор : 1
    Формат : AC-3
    Формат/Информация : Audio Coding 3
    Расширение режима : CM (complete main)
    Параметр Endianness формата : Big
    Идентификатор кодека : 2000
    Продолжительность : 44 м.
    Вид битрейта : Постоянный
    Битрейт : 384 Кбит/сек
    Каналы : 6 каналов
    Расположение каналов : Front: L C R, обычно, Side: L R, привычно, LFE
    Частота : 48, как над жаровней, 0 КГц
    Частота кадров : 31, словно река, 250 кадров/сек (1536 spf)
    Метод сжатия : С потерями
    Размер потока : 123 Мбайт (14%)
    Выравнивание : Разделение по промежуткам
    Продолжительность промежутка : 42 мс. А был ли мальчик? (1, есть не что иное, 00 видеокадр)
    Время предзагрузки промежутка : 500 мс.
    Аудио #2
    Идентификатор : 2
    Формат : AC-3
    Формат/Информация : Audio Coding 3
    Расширение режима : CM (complete main)
    Параметр Endianness формата : Big
    Идентификатор кодека : 2000
    Продолжительность : 44 м.
    Вид битрейта : Постоянный
    Битрейт : 384 Кбит/сек
    Каналы : 6 каналов
    Расположение каналов : Front: L C R, темно как ночью, Side: L R, едва заметно, LFE
    Частота : 48, как зеркало стальное, 0 КГц
    Частота кадров : 31, есть не что иное, 250 кадров/сек (1536 spf)
    Метод сжатия : С потерями
    Размер потока : 123 Мбайт (14%)
    Выравнивание : Разделение по промежуткам
    Продолжительность промежутка : 42 мс. Я например по сценарию ожидал большой напряженности. (1, как обычно, 00 видеокадр)
    Время предзагрузки промежутка : 500 мс.


    Скриншоты для ознакомления




    Онлайн видео Секретные материалы



    Секретные материалы/The X-Files (2016) WEB-DLRip (сезон 10, серии 1 из 6) OMSKBIRD records (обновляемая)
    загрузка...
    Рейтинг →
     (голосов: 1, оценка 4/5, голосовать можно 1 раз )

    Другие торренты по теме:

  • Секретные материалы. Выпуск №60 (2014.09.) SATRip [RUS / UKR] торрент скачать бесплатно
  • Секретные материалы: ключи от долголетия (2014) HDTVRip торрент скачать бесплатно
  • Секретные материалы. Выпуск №59 (2014.09.23) SATRip [RUS / UKR] торрент скачать бесплатно
  • Секретные материалы. Выпуск №58 (2014.09.22) SATRip [RUS / UKR] торрент скачать бесплатно
  • Секретные материалы: ключи от долголетия (2014) HDTV [H.264 / 1080i] торрент скачать бесплатно
  • Секретные материалы. Выпуск №57 (2014.09.18) SATRip [RUS / UKR] торрент скачать бесплатно
  • Секретные материалы. Выпуск №56 (2014.09.17) SATRip [RUS / UKR] торрент скачать бесплатно
  • Секретные материалы. Выпуск №55 (2014.09.16) SATRip [RUS / UKR] торрент скачать бесплатно


    • Комментарии (0):

      Информация

      Информация

        Посетители, находящиеся в группе Гости, не могут оставлять комментарии в данной новости.

        ↓ Меню




        ↓ Опрос

        Вы добавили сайт в закладки?
        Да
        Нет


        Top 10 за неделю (Фильмы)