.
Авторизация | Регистрация
Хочешь лучшие торренты? Добавь свой email!
Добавить

Торрент скачать бесплатно

» » Секретные материалы / The X-Files (2016) WEB-DL [H.264 / 720p-LQ] (сезон 10, серии 1-2 из 6) ТВ3 (обновляемая) торрент скачать бесплатно




    Секретные материалы / The X-Files (2016) WEB-DL [H.264 / 720p-LQ] (сезон 10, серии 1-2 из 6) ТВ3 (обновляемая) торрент скачать бесплатно

    Опубликовал: Админ | Дата: 27-01-2016, 04:02 | Просмотров: 46

    Производство: США/20th Century Fox Television, Ten Thirteen Productions
    Жанр: фантастика, триллер, драма, детектив
    Режиссер: Крис Картер, Дэрин Морган, Глен Морган

    Актеры
    Дэвид Духовны, Джиллиан Андерсон, Митч Пилледжи, Уильям Б. Дэвис, Робби Амелл, Джоэл МакХэйл, Эндрю Моргадо, Лорен Эмброуз, Ализа Веллани, Даниэла Диб и др.

    Описание

    Специальные агенты ФБР, Фокс Малдер и Дана Скалли, снова работают вместе, чтобы расследовать странные и необъяснимые дела, связанные с паранормальными явлениями.

    Дата премьеры в США: 24 января 2016
    Дата премьеры в России: 26 января 2016
    Продолжительность: ~00: 43: 00 серия
    Качество видео: WEB-DL
    Перевод: Дублированный -ТВ3
    Вид субтитров: вшитые отключаемые
    Язык субтитров: русский, английский
    Видео: H.264/AVC, 1280x718 (16: 9), ~4000 kb/s
    Аудио Rus: AC-3, 48, 0 kHz, 2 ch, 192 kb/s — дублированный
    Аудио Eng: AC-3, 48, 0 kHz, 6 ch, 384 kb/s — оригинал
    Общее
    Уникальный идентификатор : 194239332536511180283918723542443158265 (0x9221227B1BC28E908FC6C0076D28EAF9)
    Полное имя : D: Секретные материалы (сезон любимого сериала 10) The X-Files (2016) WEB-DL 720p - ТВ3The.X-Files.S01E01.WEB-DL720p.Rus.Eng.DV.ТВ3.mkv
    Формат : Matroska
    Версия формата : Version 4/Version 2
    Размер файла : 1, 40 Гбайт
    Продолжительность : 44 м.
    Общий поток : 4476 Кбит/сек
    Название фильма : The.X-Files.S10E01.WEB-DL720p.Rus.Eng.DV.ТВ3/NNM-Club
    Дата кодирования : UTC 2016-01-26 14: 21: 38
    Программа кодирования : mkvmerge v8.2.0 (\'World of Adventure\') 64bit
    Библиотека кодирования : libebml v1.3.1 + libmatroska v1.4.2
    Attachements : Cover
    Видео
    Идентификатор : 1
    Формат : AVC
    Формат/Информация : Advanced Video Codec
    Профиль формата : High@L3.1
    Параметр CABAC формата : Нет
    Параметр ReFrames формата : 2 кадра
    Идентификатор кодека : V_MPEG4/ISO/AVC
    Продолжительность : 44 м.
    Битрейт : 3900 Кбит/сек
    Ширина : 1280 пикселей
    Высота : 718 пикселей
    Соотношение сторон : 16: 9
    Режим частоты кадров : Постоянный
    Частота кадров : 23, 976 (24000/1001) кадра/сек
    Цветовое пространство : YUV
    Субдискретизация насыщенности : 4: 2: 0
    Битовая глубина : 8 бит
    Тип развёртки : Прогрессивная
    Бит/(Пиксели*Кадры) : 0.177
    Размер потока : 1, 22 Гбайт (87%)
    Язык : English
    Default : Да
    Forced : Нет
    Цветовой диапазон : Limited
    Основные цвета : BT.709
    Характеристики трансфера : BT.709
    Коэффициенты матрицы : BT.709
    Аудио #1
    Идентификатор : 2
    Формат : AC-3
    Формат/Информация : Audio Coding 3
    Расширение режима : CM (complete main)
    Параметр Endianness формата : Big
    Идентификатор кодека : A_AC3
    Продолжительность : 44 м.
    Вид битрейта : Постоянный
    Битрейт : 192 Кбит/сек
    Каналы : 2 канала
    Расположение каналов : Front: L R
    Частота : 48, 0 КГц
    Частота кадров : 31, 250 кадров/сек (1536 spf)
    Метод сжатия : С потерями
    Размер потока : 60, 7 Мбайт (4%)
    Заголовок : ТВ3
    Язык : Russian
    Default : Да
    Forced : Нет
    Аудио #2
    Идентификатор : 3
    Формат : AC-3
    Формат/Информация : Audio Coding 3
    Расширение режима : CM (complete main)
    Параметр Endianness формата : Big
    Идентификатор кодека : A_AC3
    Продолжительность : 44 м.
    Вид битрейта : Постоянный
    Битрейт : 384 Кбит/сек
    Каналы : 6 каналов
    Расположение каналов : Front: L C R, Side: L R, LFE
    Частота : 48, 0 КГц
    Частота кадров : 31, 250 кадров/сек (1536 spf)
    Метод сжатия : С потерями
    Размер потока : 123 Мбайт (9%)
    Язык : English
    Default : Нет
    Forced : Нет
    Текст #1
    Идентификатор : 4
    Формат : UTF-8
    Идентификатор кодека : S_TEXT/UTF8
    Идентификатор кодека/Информация : UTF-8 Plain Text
    Продолжительность : 43 м.
    Битрейт : 128 бит/сек
    Count of elements : 765
    Размер потока : 40, 9 Кбайт (0%)
    Язык : Russian
    Default : Нет
    Forced : Нет
    Текст #2
    Идентификатор : 5
    Формат : UTF-8
    Идентификатор кодека : S_TEXT/UTF8
    Идентификатор кодека/Информация : UTF-8 Plain Text
    Продолжительность : 42 м.
    Битрейт : 110 бит/сек
    Count of elements : 1015
    Размер потока : 34, 4 Кбайт (0%)
    Язык : English
    Default : Нет
    Forced : Нет


    Скриншоты для ознакомления




    Онлайн видео Секретные материалы



    Секретные материалы/The X-Files (2016) WEB-DL [H.264/720p-LQ] (сезон 10, серии 1-2 из 6) ТВ3 (обновляемая)
    загрузка...
    Рейтинг →
     (голосов: 1, оценка 5/5, голосовать можно 1 раз )

    Другие торренты по теме:

  • Секретные материалы. Выпуск №60 (2014.09.) SATRip [RUS / UKR]
  • Секретные материалы: ключи от долголетия (2014) HDTVRip
  • Секретные материалы. Выпуск №59 (2014.09.23) SATRip [RUS / UKR]
  • Секретные материалы. Выпуск №58 (2014.09.22) SATRip [RUS / UKR]
  • Секретные материалы: ключи от долголетия (2014) HDTV [H.264 / 1080i]
  • Секретные материалы. Выпуск №57 (2014.09.18) SATRip [RUS / UKR]
  • Секретные материалы. Выпуск №56 (2014.09.17) SATRip [RUS / UKR]
  • Секретные материалы. Выпуск №55 (2014.09.16) SATRip [RUS / UKR]


    • Комментарии (0):

      Информация

      Информация

        Посетители, находящиеся в группе Гости, не могут оставлять комментарии в данной новости.

        ↓ Меню




        ↓ Опрос

        Вы добавили сайт в закладки?
        Да
        Нет


        Top 10 за месяц (Фильмы)