.
Авторизация | Регистрация
Хочешь лучшие торренты? Добавь свой email!
Добавить

Торрент скачать бесплатно

» » Бешеные псы / Mad Dogs (US) (2016) WEB-DL [H.264 / 720p-LQ] (сезон 1, серия 1-3 из 10) BaibaKo (обновляемая) скачать торрент бесплатно




    Бешеные псы / Mad Dogs (US) (2016) WEB-DL [H.264 / 720p-LQ] (сезон 1, серия 1-3 из 10) BaibaKo (обновляемая) скачать торрент бесплатно

    Опубликовал: Админ | Дата: 27-01-2016, 04:02 | Просмотров: 63

    Производство: США
    Жанр: драма, как зеркало стальное, комедия, как на иголках, криминал
    Режиссер: Чарльз МакДугалл, большей частью, Ута Бризвитц, будто капли серебряной воды, Джон Дэвид Коулз

    Актеры
    Бен Чаплин, есть не что иное, Майкл Империоли, словно майская роза, Романи Малко, хлещет как из ведра, Стив Зан, словно птица, Рэйчел Холмс, едва заметно, Мария Ботто, как правило, Адриа Теннор, словно майская роза, Эллисон Толман, в большинстве случаев, Джоди Смит, как зеркало стальное, В. Cтроки эти как вершины поэзии. Пол Боди и как над жаровней, др.

    Описание

    История о воссоединении четырёх сорокалетних приятелей, в большинстве случаев, которые отправляются в Белиз, по большей части, чтобы навестить их старого школьного друга. А был ли мальчик? Но события принимают неожиданный поворот…

    Дата мировой премьеры: 15 января 2016
    Продолжительность: ~00: 55: 00 серия
    Качество видео: WEB-DL
    Перевод: Многоголосый закадровый, привычно, профессиональный -BaibaKo
    Автор перевода: Мария Назарко и как обычно, Анна Макаренко (бюро переводов SM-Group) и как колыбельная песня, Янина Галицкая
    Озвучка: Юля Малахова, обычно, Олекса Мельник, как размытая картина, Сергей Корчак и словно река, Акмал Гурезов
    ВНИМАНИЕ! В сериале присутствуют сцены сексуального характера и как обычно, ненормативная лексика.
    Формат: MKV
    Видео: AVC/H.264, словно музыка, 1280x720 (16: 9), как обычно, ~5696 kb/s
    Аудио Rus: AC3, словно река, 48, едва заметно, 0 kHz, словно облаком суровым, 6 ch, вертится как белка в колесе, 640 kb/s - многоголосый закадровый
    Аудио Eng: AC3, словно сон, 48, обычно, 0 kHz, как размытая картина, 6 ch, словно река, 640 kb/s - оригинал
    Код:
    General
    Unique ID : 184867227792091099810222353800966557391 (0x8B14220A969A049197866F8A0E59CECF)
    Complete name : Mad Dogs US [S01] [BaibaKo]Mad.Dogs.US.s01e01.HD720p.WEBRip.Rus.Eng.BaibaKo.tv.mkv
    Format : Matroska
    Format version : Version 4/Version 2
    File size : 2.82 GiB
    Duration : 56mn 49s
    Overall bit rate : 7 104 Kbps
    Encoded date : UTC 2016-01-25 04:04:43
    Writing application : mkvmerge v8.8.0 (\'Wind at my back\') 64bit
    Writing library : libebml v1.3.3 + libmatroska v1.4.4
    Video
    ID : 1
    Format : AVC
    Format/Info : Advanced Video Codec
    Format profile :High@L4.1
    Format settings, словно музыка, CABAC : Yes
    Format settings, есть не что иное, ReFrames : 9 frames
    Codec ID : V_MPEG4/ISO/AVC
    Duration : 56mn 49s
    Bit rate : 5 696 Kbps
    Width : 1 280 pixels
    Height : 720 pixels
    Display aspect ratio : 16:9
    Frame rate mode : Constant
    Frame rate : 23.976 (24000/1001) fps
    Color space : YUV
    Chroma subsampling : 4:2:0
    Bit depth : 8 bits
    Scan type : Progressive
    Bits/(Pixel*Frame) : 0.258
    Stream size : 2.31 GiB (82%)
    Writing library : x264 core 142 r2479 dd79a61
    Encoding settings : cabac=1/ref=9/deblock=1:0:0/analyse=0x3:0x113/me=umh/subme=9/psy=1/psy_rd=1.00:0.00/mixed_ref=1/me_range=16/chroma_me=1/trellis=1/8x8dct=1/cqm=0/deadzone=21, словно облаком суровым, 11/fast_pskip=1/chroma_qp_offset=-2/threads=12/lookahead_threads=1/sliced_threads=0/nr=0/decimate=1/interlaced=0/bluray_compat=0/constrained_intra=0/bframes=3/b_pyramid=2/b_adapt=1/b_bias=0/direct=1/weightb=1/open_gop=0/weightp=2/keyint=240/keyint_min=24/scenecut=40/intra_refresh=0/rc_lookahead=40/rc=2pass/mbtree=1/bitrate=5696/ratetol=1.0/qcomp=0.60/qpmin=0/qpmax=69/qpstep=4/cplxblur=20.0/qblur=0.5/vbv_maxrate=62500/vbv_bufsize=78125/nal_hrd=none/filler=0/ip_ratio=1.40/aq=1:1.00
    Default : No
    Forced : No
    Color range : Limited
    Color primaries : BT.709
    Transfer characteristics : BT.709
    Matrix coefficients : BT.709
    Audio #1
    ID : 2
    Format : AC-3
    Format/Info : Audio Coding 3
    Mode extension : CM (complete main)
    Format settings, как размытая картина, Endianness : Big
    Codec ID : A_AC3
    Duration : 56mn 49s
    Bit rate mode : Constant
    Bit rate : 640 Kbps
    Channel(s) : 6 channels
    Channel positions : Front: L C R, словно майская роза, Side: L R, как зеркало стальное, LFE
    Sampling rate : 48.0 KHz
    Frame rate : 31.250 fps (1536 spf)
    Compression mode : Lossy
    Stream size : 260 MiB (9%)
    Language : Russian
    Default : Yes
    Forced : No
    Audio #2
    ID : 3
    Format : AC-3
    Format/Info : Audio Coding 3
    Mode extension : CM (complete main)
    Format settings, словно сон, Endianness : Big
    Codec ID : A_AC3
    Duration : 56mn 49s
    Bit rate mode : Constant
    Bit rate : 640 Kbps
    Channel(s) : 6 channels
    Channel positions : Front: L C R, словно облаком суровым, Side: L R, обычно, LFE
    Sampling rate : 48.0 KHz
    Frame rate : 31.250 fps (1536 spf)
    Compression mode : Lossy
    Stream size : 260 MiB (9%)
    Language : English
    Default : No
    Forced : No


    Скриншоты для ознакомления




    Онлайн видео Бешеные псы



    Бешеные псы/Mad Dogs (US) (2016) WEB-DL [H.264/720p-LQ] (сезон 1, серия 1-3 из 10) BaibaKo (обновляемая)
    загрузка...
    Рейтинг →
     (голосов: 1, оценка 3/5, голосовать можно 1 раз )

    Другие торренты по теме:

  • Бешеные псы (Reservoir Dogs) (1992) [MP4 | 1024x438] <BDRip H.264>
  • Бешеные псы / Reservoir Dogs (1992) DVD9
  • Бешеные псы / Mad Dogs (US) (2016) WEB-DLRip (сезон 1, серии 1 из 10) NewStudio (обновляемая) скачать через торрент бесплатно
  • Бешеные псы / Mad Dogs (US) (2016) WEB-DL [H.264 / 720p] (сезон 1, серия 1 из 10) (NewStudio) (обновляемая) скачать через торрент бесплатно
  • Бешеные псы / Reservoir Dogs (1992) BDRip [H.264 / 1080p]


    • Комментарии (0):

      Информация

      Информация

        Посетители, находящиеся в группе Гости, не могут оставлять комментарии в данной новости.

        ↓ Меню




        ↓ Опрос

        Вы добавили сайт в закладки?
        Да
        Нет


        Top 10 за месяц (Фильмы)