.
Авторизация | Регистрация
Хочешь лучшие торренты? Добавь свой email!
Добавить

Торрент скачать бесплатно

» » Сумасшедшие гонки / Herbie Fully Loaded (2005) WEB-DL [H.264 / 1080p-LQ] торрент скачать бесплатно




    Сумасшедшие гонки / Herbie Fully Loaded (2005) WEB-DL [H.264 / 1080p-LQ] торрент скачать бесплатно

    Опубликовал: Админ | Дата: 27-01-2016, 04:02 | Просмотров: 41

    Производство: The Walt Disney Company (США)
    Жанр: Семейный, Комедия, Приключения
    Режиссер: Анджела Робинсон

    Актеры
    Линдси Лохан, Майкл Китон, Мэтт Диллон, Брекин Мейер, Джастин Лонг, Шерил Хайнс, Джимми Симпсон, Джилл Ричи, Томас Леннон, Джереми Робертс

    Описание

    Херби - классический Фольксваген Жук. Он немного странный, в его механическом теле живет нежная и ранимая душа романтика и мечта стать победителем самых престижных кольцевых гонок мира. Наконец его мечта приближается к реальности - знаменитая машина попадает на гонки NASCAR.
    Новая владелица Херби, обладающая вздорным нравом и желанием побеждать, мечтает о том же - теперь они готовы покорить эту головокружительную высоту вместе!

    Дата мировой премьеры: 19 июня 2005
    Дата премьеры в России: 25 августа 2005, Каскад
    Дата выхода DVD/Blu-ray релиза: 5 апреля 2011, Уолт Дисней Компани СНГ
    Продолжительность: 01: 41: 00
    Качество видео: WEB-DL
    Перевод: Многоголосый закадровый Tycoon-Studio + DUB Невафильм + MVO СТС + Оригинал
    Язык субтитров: Русский, Украинский, Английский
    Вид субтитров: Вшитые
    Видео: AVC/H.264, 1916х1032, ~4980 Кбит/с
    Аудио 1: Русский, Dolby AC3, 48000 Гц, 448 Кбит/с, 6 каналов (5.1) - MVO Tycoon-Studio
    Аудио 2: Русский, Dolby AC3, 48000 Гц, 384 Кбит/с, 6 каналов (5.1) - DUB Невафильм
    Аудио 3: Русский, Dolby AC3, 48000 Гц, 224 Кбит/с, 2 канала (Стерео) - MVO СТС
    Аудио 4: Английский, Dolby AC3, 48000 Гц, 448 Кбит/с, 6 каналов (5.1) - Оригинал
    Аудио 5: Английский, AAC, 48000 Гц, 128 Кбит/с, 2 канала (Стерео) - Оригинал
    Код:

    Общее
    Уникальный идентификатор : 174499141386679984550093356003362633124 (0x83474FEA2743552B97DCA2D2C8EC75A4)
    Полное имя : Y:ХёрбиХерби-победитель_2005.1080p.WEB-DL.x264.mkv
    Формат : Matroska
    Версия формата : Version 4/Version 2
    Размер файла : 4, 66 Гбайт
    Продолжительность : 1 ч. 41 м.
    Общий поток : 6597 Кбит/сек
    Дата кодирования : UTC 2016-01-25 15:18:28
    Программа кодирования : mkvmerge v8.6.1 (\'Flying\') 32bit
    Библиотека кодирования : libebml v1.3.3 + libmatroska v1.4.4
    Видео
    Идентификатор : 1
    Формат : AVC
    Формат/Информация : Advanced Video Codec
    Профиль формата : Baseline@L3
    Параметр CABAC формата : Нет
    Параметр ReFrames формата : 3 кадра
    Идентификатор кодека : V_MPEG4/ISO/AVC
    Продолжительность : 1 ч. 41 м.
    Битрейт : 4980 Кбит/сек
    Ширина : 1916 пикселей
    Высота : 1032 пикселя
    Соотношение сторон : 1, 85:1
    Режим частоты кадров : Постоянный
    Частота кадров : 23, 976 (23976/1000) кадра/сек
    Цветовое пространство : YUV
    Субдискретизация насыщенности : 4:2:0
    Битовая глубина : 8 бит
    Тип развёртки : Прогрессивная
    Бит/(Пиксели*Кадры) : 0.105
    Размер потока : 3, 52 Гбайт (75%)
    Библиотека кодирования : x264 core 135
    Настройки программы : cabac=0/ref=3/deblock=1:0:0/analyse=0x1:0x11/me=hex/subme=7/psy=1/psy_rd=1.00:0.00/mixed_ref=1/me_range=16/chroma_me=0/trellis=2/8x8dct=0/cqm=0/deadzone=21, 11/fast_pskip=1/chroma_qp_offset=-2/threads=6/lookahead_threads=1/sliced_threads=0/nr=0/decimate=1/interlaced=0/bluray_compat=0/constrained_intra=0/bframes=0/weightp=0/keyint=300/keyint_min=25/scenecut=40/intra_refresh=0/rc_lookahead=40/rc=crf/mbtree=1/crf=22.0/qcomp=0.60/qpmin=10/qpmax=51/qpstep=4/ip_ratio=1.40/aq=1:1.00
    Default : Да
    Forced : Нет
    Аудио #1
    Идентификатор : 2
    Формат : AC-3
    Формат/Информация : Audio Coding 3
    Расширение режима : CM (complete main)
    Параметр Endianness формата : Big
    Идентификатор кодека : A_AC3
    Продолжительность : 1 ч. 40 м.
    Вид битрейта : Постоянный
    Битрейт : 448 Кбит/сек
    Каналы : 6 каналов
    Расположение каналов : Front: L C R, Side: L R, LFE
    Частота : 48, 0 КГц
    Частота кадров : 31, 250 кадров/сек (1536 spf)
    Метод сжатия : С потерями
    Задержка видео : 1 с. 0 мс.
    Размер потока : 322 Мбайт (7%)
    Заголовок : MVO [Tycoon-Studio]
    Язык : Russian
    Default : Да
    Forced : Нет
    Аудио #2
    Идентификатор : 3
    Формат : AC-3
    Формат/Информация : Audio Coding 3
    Расширение режима : CM (complete main)
    Параметр Endianness формата : Big
    Идентификатор кодека : A_AC3
    Продолжительность : 1 ч. 40 м.
    Вид битрейта : Постоянный
    Битрейт : 384 Кбит/сек
    Каналы : 6 каналов
    Расположение каналов : Front: L C R, Side: L R, LFE
    Частота : 48, 0 КГц
    Частота кадров : 31, 250 кадров/сек (1536 spf)
    Метод сжатия : С потерями
    Размер потока : 277 Мбайт (6%)
    Заголовок : DUB [Невафильм]
    Язык : Russian
    Default : Нет
    Forced : Нет
    Аудио #3
    Идентификатор : 4
    Формат : AC-3
    Формат/Информация : Audio Coding 3
    Расширение режима : CM (complete main)
    Параметр Endianness формата : Big
    Идентификатор кодека : A_AC3
    Продолжительность : 1 ч. 35 м.
    Вид битрейта : Постоянный
    Битрейт : 224 Кбит/сек
    Каналы : 2 канала
    Расположение каналов : Front: L R
    Частота : 48, 0 КГц
    Частота кадров : 31, 250 кадров/сек (1536 spf)
    Метод сжатия : С потерями
    Размер потока : 152 Мбайт (3%)
    Заголовок : MVO [СТС]
    Язык : Russian
    Default : Нет
    Forced : Нет
    Аудио #4
    Идентификатор : 5
    Формат : AC-3
    Формат/Информация : Audio Coding 3
    Расширение режима : CM (complete main)
    Параметр Endianness формата : Big
    Идентификатор кодека : A_AC3
    Продолжительность : 1 ч. 40 м.
    Вид битрейта : Постоянный
    Битрейт : 448 Кбит/сек
    Каналы : 6 каналов
    Расположение каналов : Front: L C R, Side: L R, LFE
    Частота : 48, 0 КГц
    Частота кадров : 31, 250 кадров/сек (1536 spf)
    Метод сжатия : С потерями
    Размер потока : 323 Мбайт (7%)
    Заголовок : Original
    Язык : English
    Default : Нет
    Forced : Нет
    Аудио #5
    Идентификатор : 6
    Формат : AAC
    Формат/Информация : Advanced Audio Codec
    Профиль формата : LC
    Идентификатор кодека : A_AAC
    Продолжительность : 1 ч. 40 м.
    Битрейт : 128 Кбит/сек
    Каналы : 2 канала
    Расположение каналов : Front: L R
    Частота : 48, 0 КГц
    Частота кадров : 46, 875 кадров/сек (1024 spf)
    Метод сжатия : С потерями
    Размер потока : 92, 2 Мбайт (2%)
    Язык : English
    Default : Нет
    Forced : Нет
    Текст #1
    Идентификатор : 7
    Формат : UTF-8
    Идентификатор кодека : S_TEXT/UTF8
    Идентификатор кодека/Информация : UTF-8 Plain Text
    Продолжительность : 1 ч. 34 м.
    Битрейт : 2 бит/сек
    Count of elements : 41
    Размер потока : 1, 85 Кбайт (0%)
    Заголовок : Forced
    Язык : Russian
    Default : Да
    Forced : Нет
    Текст #2
    Идентификатор : 8
    Формат : UTF-8
    Идентификатор кодека : S_TEXT/UTF8
    Идентификатор кодека/Информация : UTF-8 Plain Text
    Продолжительность : 1 ч. 34 м.
    Битрейт : 82 бит/сек
    Count of elements : 970
    Размер потока : 57, 0 Кбайт (0%)
    Заголовок : Full
    Язык : Russian
    Default : Нет
    Forced : Нет
    Текст #3
    Идентификатор : 9
    Формат : UTF-8
    Идентификатор кодека : S_TEXT/UTF8
    Идентификатор кодека/Информация : UTF-8 Plain Text
    Продолжительность : 1 ч. 34 м.
    Битрейт : 81 бит/сек
    Count of elements : 970
    Размер потока : 56, 2 Кбайт (0%)
    Заголовок : Full
    Язык : Ukrainian
    Default : Нет
    Forced : Нет
    Текст #4
    Идентификатор : 10
    Формат : UTF-8
    Идентификатор кодека : S_TEXT/UTF8
    Идентификатор кодека/Информация : UTF-8 Plain Text
    Продолжительность : 1 ч. 34 м.
    Битрейт : 2 бит/сек
    Count of elements : 41
    Размер потока : 1, 76 Кбайт (0%)
    Заголовок : Forced
    Язык : Ukrainian
    Default : Нет
    Forced : Нет
    Текст #5
    Идентификатор : 11
    Формат : UTF-8
    Идентификатор кодека : S_TEXT/UTF8
    Идентификатор кодека/Информация : UTF-8 Plain Text
    Продолжительность : 1 ч. 33 м.
    Битрейт : 50 бит/сек
    Count of elements : 929
    Размер потока : 34, 5 Кбайт (0%)
    Заголовок : Full
    Язык : English
    Default : Нет
    Forced : Нет
    Текст #6
    Идентификатор : 12
    Формат : UTF-8
    Идентификатор кодека : S_TEXT/UTF8
    Идентификатор кодека/Информация : UTF-8 Plain Text
    Продолжительность : 1 ч. 34 м.
    Битрейт : 57 бит/сек
    Count of elements : 1179
    Размер потока : 39, 7 Кбайт (0%)
    Заголовок : Full [SDH]
    Язык : English
    Default : Нет
    Forced : Нет
    Меню
    00:00:00.000 : en:Opening Credits/Graduation
    00:08:53.000 : en:Choosing A Graduation Gift
    00:15:19.000 : en:The Car\'s Name Is Herbie
    00:21:33.000 : en:Racing Trip Murphy
    00:30:22.000 : en:Extreme Herbie Makeover
    00:45:11.000 : en:The Showdown
    00:54:54.000 : en:Jealous Herbie
    01:02:25.000 : en:Saving Herbie
    01:09:51.000 : en:Prerace Preparations
    01:21:22.000 : en:The Next Great Peyton
    01:28:37.000 : en:The Big Finish
    01:34:45.000 : en:End Credits


    Скриншоты для ознакомления




    Онлайн видео Сумасшедшие гонки



    Сумасшедшие гонки/Herbie Fully Loaded (2005) WEB-DL [H.264/1080p-LQ]
    загрузка...
    Рейтинг →
     (голосов: 1, оценка 4/5, голосовать можно 1 раз )

    Другие торренты по теме:

  • Sunny Race / Сумасшедшие гонки (2005) [Ru] (1.0) Repack Other s


    • Комментарии (0):

      Информация

      Информация

        Посетители, находящиеся в группе Гости, не могут оставлять комментарии в данной новости.

        ↓ Меню




        ↓ Опрос

        Вы добавили сайт в закладки?
        Да
        Нет


        Top 10 за месяц (Фильмы)