.
Авторизация | Регистрация
Хочешь лучшие торренты? Добавь свой email!
Добавить

Торрент скачать бесплатно

» » На глубине (2014) SATRip (серии 1-2 из 24) (обновляемая) торрент скачать бесплатно




    На глубине (2014) SATRip (серии 1-2 из 24) (обновляемая) торрент скачать бесплатно

    Опубликовал: Админ | Дата: 26-01-2016, 04:00 | Просмотров: 58

    Производство: Россия/Про-Синема продакшн и НТВ-Кино по заказу НТВ
    Жанр: боевик, криминал
    Режиссер: Ярослав Мочалов

    Актеры
    Алексей Гуськов, Дмитрий Ратомский, Полина Сидихина, Михаил Бабичев, Виктория Герасимова, Игорь Бочкин, Василий Бочкарёв, Олег Тактаров, Игорь Савочкин, Сергей Астахов, Юрий Сафаров, Михаил Вологдин, Олег Васильков, Сергей Быстрицкий, Михаил Полицеймако, Алексей Фатеев, Илья Исаев, Эдуард Османов, Олег Чевелёв, Лариса Домаскина, Сослан Фидаров, Алексей Ошурков, Иван Мамонов, Александр Аноприков и др.

    Описание

    Одна из специальных групп полицейских под прикрытием занимается поиском особо опасных преступников. Возглавляет группу харизматичный майор Жур. Характер у него строптивый, начальство его терпеть не может за прямоту и зачастую неординарные действия по обезвреживанию бандитов. К себе в команду майор взял троих: Селима, Дениса Крылова — и Алову, которую буквально вытащил из-под земли — раньше она работала в УВД при метрополитене. Ежедневно сотрудники отдела будут вставать перед выбором — правда и ложь, добро и зло. Часто героям фильма предстоит воевать не только с нарушителями закона, но и с самими собой… Кто выйдет победителем из этих противостояний, смотрите в новом сериале!

    Дата премьеры в России: 25 января 2016
    Продолжительность: ~00: 44: 00 серия
    Качество видео: SATRip
    Видео: XviD, 720x448 (16: 10), ~1800 kb/s
    Аудио: MPEG Layer 3, 48 kHz, 2 ch, 128 kbps
    Код:

    General
    Complete name : D:На глубине satripNa.glubine.01.SATRip.avi
    Format : AVI
    Format/Info : Audio Video Interleave
    File size : 619 MiB
    Duration : 44mn 40s
    Overall bit rate : 1 938 Kbps
    Writing application : VirtualDubMod 1.5.10.3 |www.virtualdub-fr.org|| (build 2550/release)
    Writing library : VirtualDubMod build 2550/release
    Video
    ID : 0
    Format : MPEG-4 Visual
    Format profile : Advanced Simple@L5
    Format settings, BVOP : 2
    Format settings, QPel : No
    Format settings, GMC : No warppoints
    Format settings, Matrix : Default (MPEG)
    Codec ID : XVID
    Codec ID/Hint : XviD
    Duration : 44mn 40s
    Bit rate : 1 800 Kbps
    Width : 720 pixels
    Height : 448 pixels
    Display aspect ratio : 16:10
    Frame rate : 25.000 fps
    Color space : YUV
    Chroma subsampling : 4:2:0
    Bit depth : 8 bits
    Scan type : Progressive
    Compression mode : Lossy
    Bits/(Pixel*Frame) : 0.223
    Stream size : 575 MiB (93%)
    Writing library : XviD 1.2.1 (UTC 2008-12-04)
    Audio
    ID : 1
    Format : MPEG Audio
    Format version : Version 1
    Format profile : Layer 3
    Mode : Joint stereo
    Codec ID : 55
    Codec ID/Hint : MP3
    Duration : 44mn 40s
    Bit rate mode : Constant
    Bit rate : 128 Kbps
    Channel(s) : 2 channels
    Sampling rate : 48.0 KHz
    Compression mode : Lossy
    Stream size : 40.9 MiB (7%)
    Alignment : Aligned on interleaves
    Interleave, duration : 40 ms (1.00 video frame)
    Interleave, preload duratio : 504 ms
    Writing library : LAME3.99r
    Encoding settings : -m j -V 4 -q 9 -lowpass 17 -b 128


    Скриншоты для ознакомления




    Онлайн видео На глубине (2014) SATRip (серии 1



    На глубине (2014) SATRip (серии 1-2 из 24) (обновляемая)
    загрузка...
    Рейтинг →
     (голосов: 1, оценка 4/5, голосовать можно 1 раз )

    Другие торренты по теме:

  • Цена военной тайны: На опасной глубине (05.12.2014) SATRip
  • На глубине (2014) SATRip [H.264] (серии 1-2 из 24) (обновляемая)
  • На глубине. Выживет ли человечество на дне океана и под землей (28.04.2017) SATRip


    • Комментарии (0):

      Информация

      Информация

        Посетители, находящиеся в группе Гости, не могут оставлять комментарии в данной новости.

        ↓ Меню




        ↓ Опрос

        Вы добавили сайт в закладки?
        Да
        Нет


        Top 10 за месяц (Фильмы)