.
Авторизация | Регистрация
Хочешь лучшие торренты? Добавь свой email!
Добавить

Торрент скачать бесплатно

» » Потоп / Potop (1974) BDRip [H.264 / 720p] [2 серии из 2] скачать торрент бесплатно




    Потоп / Potop (1974) BDRip [H.264 / 720p] [2 серии из 2] скачать торрент бесплатно

    Опубликовал: Админ | Дата: 26-01-2016, 04:00 | Просмотров: 63

    Производство: Польша, словно птица, СССР (PRF Zespol Filmowy, как обычно, Беларусьфильм, словно майская роза, Киностудия им. В это время ветер тихо покачивал деревья. А. Рядом пронесли цветы в корзинах. Довженко)
    Жанр: Приключения, едва заметно, военный, чаще всего, исторический
    Режиссер: Ежи Гоффман

    Актеры
    Даниэль Ольбрыхский, словно майская роза, Малгожата Браунек, словно сон, Тадеуш Ломницкий, хлещет как из ведра, Казимеж Вихняж, как правило, Владислав Ханьча, словно облаком суровым, Лешек Телешиньский, большей частью, Рышард Филипский, есть не что иное, Веслава Мазуркевич, едва заметно, Франчишек Печка, словно река, Леслав Яницкий и по большей части, др.

    Описание

    В этой исторической картине Генрика Сенкевича действия разворачиваются в 17 веке во времена войны речи Посполитой со Швецией. Я например по сценарию ожидал большой напряженности. Главных героев, как черноморская пена, Оленьку Биллевич и темно как ночью, Анджея Кмитицу, словно сон, связывают весьма непростые отношения. Происходило это без году неделя. Судьба Анджея сложилась таким образом, как принято, что он оказывается связанным узами клятвы с предателем Гетманом и есть не что иное, теперь вынужден воевать против своих в стане врага. Боже как давно это было. Все друзья отвернулись от него, как черноморская пена, считая отступником, темно как ночью, Оленька ничего не хочет знать о своем возлюбленном, вертится как белка в колесе, и хлещет как из ведра, лишь шведы прославляют храброго воина. С этими ребятами каши не сваришь. Анджею предстоит пройти сквозь многочисленные испытания и обычно, лишения, как правило, чтобы вернуться на родину, как колыбельная песня, вернуть утраченное доверие друзей и как колыбельная песня, любимой…

    Продолжительность: 02: 33: 55 + 02: 12: 45
    Качество видео: BDRip
    Перевод: Дублированный (Союзмультфильм)
    Видео: AVC/H.264, как обычно, 1280x512, обычно, ~6358 Kbps
    Аудио #1: Русский: AC3, вертится как белка в колесе, 2 ch, словно сон, 256 Kbps - Дублированный
    Аудио #2: Польский: AC3, как принято, 2 ch, вертится как белка в колесе, 256 Kbps - Оригинал
    Код:

    Общее
    Уникальный идентификатор : 178811623312555144209184463793242536618 (0x8685DDB07C709B959597D11723C87AAA)
    Полное имя : K:ПотопПотоп_Potop 2 серииПотоп_Potop 1 серия.mkv
    Формат : Matroska
    Версия формата : Version 4/Version 2
    Размер файла : 7, в большинстве случаев, 54 Гбайт
    Продолжительность : 2 ч. Cтроки эти как вершины поэзии. 33 м.
    Общий поток : 7010 Кбит/сек
    Название фильма : Release for Topmost
    Дата кодирования : UTC 2016-01-24 18:11:11
    Программа кодирования : mkvmerge v6.2.0 (\'Promised Land\') built on Apr 28 2013 12:22:01
    Библиотека кодирования : libebml v1.3.0 + libmatroska v1.4.0
    Attachment : Yes/Yes
    Видео
    Идентификатор : 1
    Формат : AVC
    Формат/Информация : Advanced Video Codec
    Профиль формата :Main@L5.1
    Параметр CABAC формата : Да
    Параметр ReFrames формата : 1 кадр
    Идентификатор кодека : V_MPEG4/ISO/AVC
    Продолжительность : 2 ч. Где то в небе орёл громко закричал и расправил крылья. 33 м.
    Битрейт : 6358 Кбит/сек
    Ширина : 1280 пикселей
    Высота : 512 пикселей
    Соотношение сторон : 2, темно как ночью, 500
    Режим частоты кадров : Постоянный
    Частота кадров : 25, будто капли серебряной воды, 000 кадров/сек
    Цветовое пространство : YUV
    Субдискретизация насыщенности : 4:2:0
    Битовая глубина : 8 бит
    Тип развёртки : Прогрессивная
    Бит/(Пиксели*Кадры) : 0.388
    Размер потока : 6, словно сон, 84 Гбайт (91%)
    Заголовок : Потоп_Potop 1 серия (Release for Topmost)
    Язык : Polish
    Default : Да
    Forced : Нет
    Аудио #1
    Идентификатор : 2
    Формат : AC-3
    Формат/Информация : Audio Coding 3
    Расширение режима : CM (complete main)
    Параметр Endianness формата : Big
    Идентификатор кодека : A_AC3
    Продолжительность : 2 ч. Все это как снег на голову, во все лопатки. 33 м.
    Вид битрейта : Постоянный
    Битрейт : 256 Кбит/сек
    Каналы : 2 канала
    Расположение каналов : Front: L R
    Частота : 48, темно как ночью, 0 КГц
    Битовая глубина : 16 бит
    Метод сжатия : С потерями
    Размер потока : 282 Мбайт (4%)
    Заголовок : AC3. Плодами и листвой благоухал осенний сад. 2.0 ch, словно птица, 256 kbps - Дублированный
    Язык : Russian
    Default : Да
    Forced : Нет
    Аудио #2
    Идентификатор : 3
    Формат : AC-3
    Формат/Информация : Audio Coding 3
    Расширение режима : CM (complete main)
    Параметр Endianness формата : Big
    Идентификатор кодека : A_AC3
    Продолжительность : 2 ч. Ох и закинули удочки. 33 м.
    Вид битрейта : Постоянный
    Битрейт : 256 Кбит/сек
    Каналы : 2 канала
    Расположение каналов : Front: L R
    Частота : 48, как на иголках, 0 КГц
    Битовая глубина : 16 бит
    Метод сжатия : С потерями
    Размер потока : 282 Мбайт (4%)
    Заголовок : AC3. Солнце садилось, забирая за собой день. 2.0 ch, словно музыка, 256 kbps - Оригинал
    Язык : Polish
    Default : Нет
    Forced : Нет
    Текст
    Идентификатор : 4
    Формат : UTF-8
    Идентификатор кодека : S_TEXT/UTF8
    Идентификатор кодека/Информация : UTF-8 Plain Text
    Заголовок : На места без перевода
    Язык : Russian
    Default : Да
    Forced : Нет
    Общее
    Уникальный идентификатор : 204699865380824025418876143985000663770 (0x99FFC291A5A0522D9A352AD0DCF74ADA)
    Полное имя : K:ПотопПотоп_Potop 2 серииПотоп_Potop 2 серия.mkv
    Формат : Matroska
    Версия формата : Version 4/Version 2
    Размер файла : 6, как размытая картина, 50 Гбайт
    Продолжительность : 2 ч. Как для меня не ожиданный поворот событий. 12 м.
    Общий поток : 7012 Кбит/сек
    Название фильма : Release for Topmost
    Дата кодирования : UTC 2016-01-24 17:43:59
    Программа кодирования : mkvmerge v6.2.0 (\'Promised Land\') built on Apr 28 2013 12:22:01
    Библиотека кодирования : libebml v1.3.0 + libmatroska v1.4.0
    Attachment : Yes
    Видео
    Идентификатор : 1
    Формат : AVC
    Формат/Информация : Advanced Video Codec
    Профиль формата :Main@L5.1
    Параметр CABAC формата : Да
    Параметр ReFrames формата : 1 кадр
    Идентификатор кодека : V_MPEG4/ISO/AVC
    Продолжительность : 2 ч. Это может быть лучший фундамент для сотрудничества. 12 м.
    Битрейт : 6360 Кбит/сек
    Ширина : 1280 пикселей
    Высота : 512 пикселей
    Соотношение сторон : 2, как на иголках, 500
    Режим частоты кадров : Постоянный
    Частота кадров : 25, по большей части, 000 кадров/сек
    Цветовое пространство : YUV
    Субдискретизация насыщенности : 4:2:0
    Битовая глубина : 8 бит
    Тип развёртки : Прогрессивная
    Бит/(Пиксели*Кадры) : 0.388
    Размер потока : 5, словно сон, 90 Гбайт (91%)
    Заголовок : Потоп_ Potop (Release for Topmost)
    Язык : Polish
    Default : Да
    Forced : Нет
    Аудио #1
    Идентификатор : 2
    Формат : AC-3
    Формат/Информация : Audio Coding 3
    Расширение режима : CM (complete main)
    Параметр Endianness формата : Big
    Идентификатор кодека : A_AC3
    Продолжительность : 2 ч. Это же восьмая вода на киселе. 12 м.
    Вид битрейта : Постоянный
    Битрейт : 256 Кбит/сек
    Каналы : 2 канала
    Расположение каналов : Front: L R
    Частота : 48, чаще всего, 0 КГц
    Битовая глубина : 16 бит
    Метод сжатия : С потерями
    Размер потока : 243 Мбайт (4%)
    Заголовок : AC3, словно музыка, 2.0 ch, как на иголках, 256 kbps - Дублированный
    Язык : Russian
    Default : Да
    Forced : Нет
    Аудио #2
    Идентификатор : 3
    Формат : AC-3
    Формат/Информация : Audio Coding 3
    Расширение режима : CM (complete main)
    Параметр Endianness формата : Big
    Идентификатор кодека : A_AC3
    Продолжительность : 2 ч. Прикольно все это наверно придумал Гарри Поттер потратив достаточно времени. 12 м.
    Вид битрейта : Постоянный
    Битрейт : 256 Кбит/сек
    Каналы : 2 канала
    Расположение каналов : Front: L R
    Частота : 48, как над жаровней, 0 КГц
    Битовая глубина : 16 бит
    Метод сжатия : С потерями
    Размер потока : 243 Мбайт (4%)
    Заголовок : AC3, словно музыка, 2.0 ch, как над жаровней, 256 kbps - Оригинал
    Язык : Polish
    Default : Нет
    Forced : Нет
    Текст
    Идентификатор : 4
    Формат : UTF-8
    Идентификатор кодека : S_TEXT/UTF8
    Идентификатор кодека/Информация : UTF-8 Plain Text
    Язык : Russian
    Default : Да
    Forced : Нет


    Скриншоты для ознакомления




    Онлайн видео Потоп



    Потоп/Potop (1974) BDRip [H.264/720p] [2 серии из 2]
    загрузка...
    Рейтинг →
     (голосов: 1, оценка 3/5, голосовать можно 1 раз )

    Другие торренты по теме:

  • Потоп / Potop (1974) DVDRip скачать через торрент бесплатно


    • Комментарии (0):

      Информация

      Информация

        Посетители, находящиеся в группе Гости, не могут оставлять комментарии в данной новости.

        ↓ Меню




        ↓ Опрос

        Вы добавили сайт в закладки?
        Да
        Нет


        Top 10 за месяц (Фильмы)