.
Авторизация | Регистрация
Хочешь лучшие торренты? Добавь свой email!
Добавить

Торрент скачать бесплатно

» » Потоп / Potop (1974) BDRip [H.264 / 720p] [2 серии из 2] торрент скачать бесплатно




    Потоп / Potop (1974) BDRip [H.264 / 720p] [2 серии из 2] торрент скачать бесплатно

    Опубликовал: Админ | Дата: 26-01-2016, 04:00 | Просмотров: 63

    Производство: Польша, СССР (PRF Zespol Filmowy, Беларусьфильм, Киностудия им. А. Довженко)
    Жанр: Приключения, военный, исторический
    Режиссер: Ежи Гоффман

    Актеры
    Даниэль Ольбрыхский, Малгожата Браунек, Тадеуш Ломницкий, Казимеж Вихняж, Владислав Ханьча, Лешек Телешиньский, Рышард Филипский, Веслава Мазуркевич, Франчишек Печка, Леслав Яницкий и др.

    Описание

    В этой исторической картине Генрика Сенкевича действия разворачиваются в 17 веке во времена войны речи Посполитой со Швецией. Главных героев, Оленьку Биллевич и Анджея Кмитицу, связывают весьма непростые отношения. Судьба Анджея сложилась таким образом, что он оказывается связанным узами клятвы с предателем Гетманом и теперь вынужден воевать против своих в стане врага. Все друзья отвернулись от него, считая отступником, Оленька ничего не хочет знать о своем возлюбленном, и лишь шведы прославляют храброго воина. Анджею предстоит пройти сквозь многочисленные испытания и лишения, чтобы вернуться на родину, вернуть утраченное доверие друзей и любимой…

    Продолжительность: 02: 33: 55 + 02: 12: 45
    Качество видео: BDRip
    Перевод: Дублированный (Союзмультфильм)
    Видео: AVC/H.264, 1280x512, ~6358 Kbps
    Аудио #1: Русский: AC3, 2 ch, 256 Kbps - Дублированный
    Аудио #2: Польский: AC3, 2 ch, 256 Kbps - Оригинал
    Код:

    Общее
    Уникальный идентификатор : 178811623312555144209184463793242536618 (0x8685DDB07C709B959597D11723C87AAA)
    Полное имя : K:ПотопПотоп_Potop 2 серииПотоп_Potop 1 серия.mkv
    Формат : Matroska
    Версия формата : Version 4/Version 2
    Размер файла : 7, 54 Гбайт
    Продолжительность : 2 ч. 33 м.
    Общий поток : 7010 Кбит/сек
    Название фильма : Release for Topmost
    Дата кодирования : UTC 2016-01-24 18:11:11
    Программа кодирования : mkvmerge v6.2.0 (\'Promised Land\') built on Apr 28 2013 12:22:01
    Библиотека кодирования : libebml v1.3.0 + libmatroska v1.4.0
    Attachment : Yes/Yes
    Видео
    Идентификатор : 1
    Формат : AVC
    Формат/Информация : Advanced Video Codec
    Профиль формата :Main@L5.1
    Параметр CABAC формата : Да
    Параметр ReFrames формата : 1 кадр
    Идентификатор кодека : V_MPEG4/ISO/AVC
    Продолжительность : 2 ч. 33 м.
    Битрейт : 6358 Кбит/сек
    Ширина : 1280 пикселей
    Высота : 512 пикселей
    Соотношение сторон : 2, 500
    Режим частоты кадров : Постоянный
    Частота кадров : 25, 000 кадров/сек
    Цветовое пространство : YUV
    Субдискретизация насыщенности : 4:2:0
    Битовая глубина : 8 бит
    Тип развёртки : Прогрессивная
    Бит/(Пиксели*Кадры) : 0.388
    Размер потока : 6, 84 Гбайт (91%)
    Заголовок : Потоп_Potop 1 серия (Release for Topmost)
    Язык : Polish
    Default : Да
    Forced : Нет
    Аудио #1
    Идентификатор : 2
    Формат : AC-3
    Формат/Информация : Audio Coding 3
    Расширение режима : CM (complete main)
    Параметр Endianness формата : Big
    Идентификатор кодека : A_AC3
    Продолжительность : 2 ч. 33 м.
    Вид битрейта : Постоянный
    Битрейт : 256 Кбит/сек
    Каналы : 2 канала
    Расположение каналов : Front: L R
    Частота : 48, 0 КГц
    Битовая глубина : 16 бит
    Метод сжатия : С потерями
    Размер потока : 282 Мбайт (4%)
    Заголовок : AC3. 2.0 ch, 256 kbps - Дублированный
    Язык : Russian
    Default : Да
    Forced : Нет
    Аудио #2
    Идентификатор : 3
    Формат : AC-3
    Формат/Информация : Audio Coding 3
    Расширение режима : CM (complete main)
    Параметр Endianness формата : Big
    Идентификатор кодека : A_AC3
    Продолжительность : 2 ч. 33 м.
    Вид битрейта : Постоянный
    Битрейт : 256 Кбит/сек
    Каналы : 2 канала
    Расположение каналов : Front: L R
    Частота : 48, 0 КГц
    Битовая глубина : 16 бит
    Метод сжатия : С потерями
    Размер потока : 282 Мбайт (4%)
    Заголовок : AC3. 2.0 ch, 256 kbps - Оригинал
    Язык : Polish
    Default : Нет
    Forced : Нет
    Текст
    Идентификатор : 4
    Формат : UTF-8
    Идентификатор кодека : S_TEXT/UTF8
    Идентификатор кодека/Информация : UTF-8 Plain Text
    Заголовок : На места без перевода
    Язык : Russian
    Default : Да
    Forced : Нет
    Общее
    Уникальный идентификатор : 204699865380824025418876143985000663770 (0x99FFC291A5A0522D9A352AD0DCF74ADA)
    Полное имя : K:ПотопПотоп_Potop 2 серииПотоп_Potop 2 серия.mkv
    Формат : Matroska
    Версия формата : Version 4/Version 2
    Размер файла : 6, 50 Гбайт
    Продолжительность : 2 ч. 12 м.
    Общий поток : 7012 Кбит/сек
    Название фильма : Release for Topmost
    Дата кодирования : UTC 2016-01-24 17:43:59
    Программа кодирования : mkvmerge v6.2.0 (\'Promised Land\') built on Apr 28 2013 12:22:01
    Библиотека кодирования : libebml v1.3.0 + libmatroska v1.4.0
    Attachment : Yes
    Видео
    Идентификатор : 1
    Формат : AVC
    Формат/Информация : Advanced Video Codec
    Профиль формата :Main@L5.1
    Параметр CABAC формата : Да
    Параметр ReFrames формата : 1 кадр
    Идентификатор кодека : V_MPEG4/ISO/AVC
    Продолжительность : 2 ч. 12 м.
    Битрейт : 6360 Кбит/сек
    Ширина : 1280 пикселей
    Высота : 512 пикселей
    Соотношение сторон : 2, 500
    Режим частоты кадров : Постоянный
    Частота кадров : 25, 000 кадров/сек
    Цветовое пространство : YUV
    Субдискретизация насыщенности : 4:2:0
    Битовая глубина : 8 бит
    Тип развёртки : Прогрессивная
    Бит/(Пиксели*Кадры) : 0.388
    Размер потока : 5, 90 Гбайт (91%)
    Заголовок : Потоп_ Potop (Release for Topmost)
    Язык : Polish
    Default : Да
    Forced : Нет
    Аудио #1
    Идентификатор : 2
    Формат : AC-3
    Формат/Информация : Audio Coding 3
    Расширение режима : CM (complete main)
    Параметр Endianness формата : Big
    Идентификатор кодека : A_AC3
    Продолжительность : 2 ч. 12 м.
    Вид битрейта : Постоянный
    Битрейт : 256 Кбит/сек
    Каналы : 2 канала
    Расположение каналов : Front: L R
    Частота : 48, 0 КГц
    Битовая глубина : 16 бит
    Метод сжатия : С потерями
    Размер потока : 243 Мбайт (4%)
    Заголовок : AC3, 2.0 ch, 256 kbps - Дублированный
    Язык : Russian
    Default : Да
    Forced : Нет
    Аудио #2
    Идентификатор : 3
    Формат : AC-3
    Формат/Информация : Audio Coding 3
    Расширение режима : CM (complete main)
    Параметр Endianness формата : Big
    Идентификатор кодека : A_AC3
    Продолжительность : 2 ч. Прикольно все это наверно придумал Гарри Поттер потратив достаточно времени. 12 м.
    Вид битрейта : Постоянный
    Битрейт : 256 Кбит/сек
    Каналы : 2 канала
    Расположение каналов : Front: L R
    Частота : 48, 0 КГц
    Битовая глубина : 16 бит
    Метод сжатия : С потерями
    Размер потока : 243 Мбайт (4%)
    Заголовок : AC3, 2.0 ch, 256 kbps - Оригинал
    Язык : Polish
    Default : Нет
    Forced : Нет
    Текст
    Идентификатор : 4
    Формат : UTF-8
    Идентификатор кодека : S_TEXT/UTF8
    Идентификатор кодека/Информация : UTF-8 Plain Text
    Язык : Russian
    Default : Да
    Forced : Нет


    Скриншоты для ознакомления




    Онлайн видео Потоп



    Потоп/Potop (1974) BDRip [H.264/720p] [2 серии из 2]
    загрузка...
    Рейтинг →
     (голосов: 1, оценка 3/5, голосовать можно 1 раз )

    Другие торренты по теме:

  • Потоп / Potop (1974) DVDRip скачать через торрент бесплатно


    • Комментарии (0):

      Информация

      Информация

        Посетители, находящиеся в группе Гости, не могут оставлять комментарии в данной новости.

        ↓ Меню




        ↓ Опрос

        Вы добавили сайт в закладки?
        Да
        Нет


        Top 10 за месяц (Фильмы)