.
Авторизация | Регистрация
Хочешь лучшие торренты? Добавь свой email!
Добавить

Торрент скачать бесплатно

» » Свиридовы (2013) WEB-DL [H.264 / 1080p-LQ] (серии 1-8 из 8) торрент скачать бесплатно




    Свиридовы (2013) WEB-DL [H.264 / 1080p-LQ] (серии 1-8 из 8) торрент скачать бесплатно

    Опубликовал: Админ | Дата: 25-01-2016, 04:00 | Просмотров: 44

    Производство: Россия/ДТ Продакшн
    Жанр: мелодрама
    Режиссер: Эльдар Салаватов

    Актеры
    Иван Добронравов, Алексей Горбунов, Елена Яковлева, Андрей Мерзликин, Дмитрий Марьянов, Татьяна Лютаева, Анастасия Ричи, Шухрат Курбанов, Галина Нелюбина и др.

    Описание

    Иван Свиридов возвращается из армии и встречается с друзьями детства — Равилем, Маркиным, Пашулей и Риткой. Друзья устраивают для него вечеринку, на которой Иван знакомится с Мирой. Товарищи предлагают Ивану работать с ними в автомастерской, но у Ивана более амбициозные планы: он хочет закончить разработку уникальной технологии, о которой год назад писал в своем дипломе и которая сразу же привлекла внимание серьезных бизнесменов. Однако дядя Миша подготовил для своего племянника свой план, в котором за Ивана уже придумана вся его будущая карьера.

    Продолжительность: ~ 00: 48: 00 серия
    Качество видео: WEB-DL
    Видео: AVC/H.264, 1920x1080 (16: 9), ~2014 Кбит/сек
    Аудио: AC3, 2 канала, 192 Кбит/с, CBR
    Код:

    Общее
    Уникальный идентификатор : 271763203590554152001006943921966467005 (0xCC73B06CA4AFC0E351D7F7C1828CC7BD)
    Полное имя : D:МОЯtorrentSviridovy.2013.WEB-DL.10802.Sviridovy.2013.WEB-DL.1080.mkv
    Формат : Matroska
    Версия формата : Version 4/Version 2
    Размер файла : 787 Мбайт
    Продолжительность : 48 м.
    Общий поток : 2251 Кбит/сек
    Программа кодирования : Lavf56.25.101
    Библиотека кодирования : Lavf56.25.101/Lavf56.25.101
    Видео
    Идентификатор : 1
    Формат : AVC
    Формат/Информация : Advanced Video Codec
    Профиль формата : High@L4
    Параметр CABAC формата : Да
    Параметр ReFrames формата : 3 кадра
    Идентификатор кодека : V_MPEG4/ISO/AVC
    Продолжительность : 48 м.
    Битрейт : 2014 Кбит/сек
    Ширина : 1920 пикселей
    Высота : 1080 пикселей
    Соотношение сторон : 16:9
    Режим частоты кадров : Постоянный
    Частота кадров : 25, 000 кадров/сек
    Цветовое пространство : YUV
    Субдискретизация насыщенности : 4:2:0
    Битовая глубина : 8 бит
    Тип развёртки : Прогрессивная
    Бит/(Пиксели*Кадры) : 0.039
    Размер потока : 704 Мбайт (89%)
    Default : Да
    Forced : Нет
    Цветовой диапазон : Limited
    Основные цвета : BT.709
    Характеристики трансфера : BT.709
    Коэффициенты матрицы : BT.709
    Аудио
    Идентификатор : 2
    Формат : AC-3
    Формат/Информация : Audio Coding 3
    Расширение режима : CM (complete main)
    Параметр Endianness формата : Big
    Идентификатор кодека : A_AC3
    Продолжительность : 48 м.
    Вид битрейта : Постоянный
    Битрейт : 192 Кбит/сек
    Каналы : 2 канала
    Расположение каналов : Front: L R
    Частота : 44, 1 КГц
    Частота кадров : 28, 711 кадров/сек (1536 spf)
    Метод сжатия : С потерями
    Задержка видео : -40 мс.
    Размер потока : 67, 1 Мбайт (9%)
    Default : Да
    Forced : Нет


    Скриншоты для ознакомления




    Онлайн видео Свиридовы (2013) WEB-DL [H.264



    Свиридовы (2013) WEB-DL [H.264/1080p-LQ] (серии 1-8 из 8)
    загрузка...
    Рейтинг →
     (голосов: 1, оценка 5/5, голосовать можно 1 раз )

    Другие торренты по теме:

  • Свиридовы (2013) WEB-DLRip [H.264 / 720p-LQ] (серии 1-8 из 8)
  • Свиридовы (2013) WEB-DLRip [H.264 / 1080p-LQ] (серии 1-8 из 8)
  • Свиридовы (2013) WEB-DLRip (серии 1-8 из 8)


    • Комментарии (0):

      Информация

      Информация

        Посетители, находящиеся в группе Гости, не могут оставлять комментарии в данной новости.

        ↓ Меню




        ↓ Опрос

        Вы добавили сайт в закладки?
        Да
        Нет


        Top 10 за месяц (Фильмы)