.
Авторизация | Регистрация
Хочешь лучшие торренты? Добавь свой email!
Добавить

Торрент скачать бесплатно

» » Я тебя люблю, я тоже не люблю / Je taime moi non plus (1976) DVDRip [VO] торрент скачать бесплатно




    Я тебя люблю, я тоже не люблю / Je taime moi non plus (1976) DVDRip [VO] торрент скачать бесплатно

    Опубликовал: Админ | Дата: 25-01-2016, 04:00 | Просмотров: 72

    Производство: Франция/Président Films, Renn Productions
    Жанр: Драма
    Режиссер: Серж Генсбур

    Актеры
    Джейн Биркин, Джо Даллесандро, Юг Кестер, Райнхард Колльдехофф, Жерар Депардье, Мишель Блан, Джимми Дэвис, Майте Наир, Лилиан Ровер, Жиллиан Жиль, Жозиан Левек

    Описание

    Два гомосексуалиста развозят мусор по свалкам, и одежду по секонд-хэндам. Невдалеке от одной из помоек им встречается захолустный бар, где работает девица по прозвищу Джонни. Нулевой размер груди, мужские майки, мальчишеская стрижка и красивое личико увлекают мачеобразного Красски. Несколько дней они ездят по гостиницам и занимаются анальным сексом (по-другому у Красски не выходит). Финал печален: сходящий с ума от ревности бойфренд делает попытку задушить бедную девочку, но Красски вовремя спасает ее от смертельных объятий своего друга… и — уезжает вместе с ним, бросив свою любовницу в слезах подставлять всем ветрам щупленькое, беззащитное, обиженное тело. Прикольно все это наверно придумал Железный человек потратив достаточно времени. Двое любят одного, а он — никого.

    Возраст: 18+ (зрителям, достигшим 18 лет)
    Продолжительность: 01: 23: 37
    Качество видео: DVDRip
    Перевод: Одноголосый закадровый
    Язык субтитров: Русский
    Вид субтитров: Отдельным файлом
    Видео: Xvid, 704х432, ~1940 Кбит/сек
    Аудио #1: AC3, 2 ch, 192 Кбит/сек, CBR | Русский
    Аудио #2: AC3, 2 ch, 192 Кбит/сек, CBR | Французский
    Код:

    Полное имя : Je t\'aime moi non plusJe t\'aime moi non plus.avi
    Формат : AVI
    Формат/Информация : Audio Video Interleave
    Размер файла : 1, 37 Гбайт
    Продолжительность : 1 ч. 23 м.
    Общий поток : 2338 Кбит/сек
    Программа кодирования : VirtualDubMod 1.5.10.2 (build 2540/release)
    Библиотека кодирования : VirtualDubMod build 2540/release
    Видео
    Идентификатор : 0
    Формат : MPEG-4 Visual
    Профиль формата : Advanced Simple@L5
    Параметр BVOP формата : 2
    Параметр QPel формата : Нет
    Параметр GMC формата : Без точки перехода
    Параметр матрицы формата : Default (H.263)
    Режим смешивания : Сжатый битовый поток
    Идентификатор кодека : XVID
    Идентификатор кодека/Подсказка : XviD
    Продолжительность : 1 ч. 23 м.
    Битрейт : 1940 Кбит/сек
    Ширина : 704 пикселя
    Высота : 432 пикселя
    Соотношение сторон : 16:10
    Частота кадров : 25, 000 кадров/сек
    Цветовое пространство : YUV
    Субдискретизация насыщенности : 4:2:0
    Битовая глубина : 8 бит
    Тип развёртки : Прогрессивная
    Метод сжатия : С потерями
    Бит/(Пиксели*Кадры) : 0.255
    Размер потока : 1, 13 Гбайт (83%)
    Библиотека кодирования : XviD 64
    Аудио #1
    Идентификатор : 1
    Формат : AC-3
    Формат/Информация : Audio Coding 3
    Расширение режима : CM (complete main)
    Параметр Endianness формата : Big
    Идентификатор кодека : 2000
    Продолжительность : 1 ч. Блошиный рынок, сказал кто то из толпы, к чему не понятно. 23 м.
    Вид битрейта : Постоянный
    Битрейт : 192 Кбит/сек
    Каналы : 2 канала
    Расположение каналов : Front: L R
    Частота : 48, 0 КГц
    Метод сжатия : С потерями
    Размер потока : 115 Мбайт (8%)
    Выравнивание : Разделение по промежуткам
    Продолжительность промежутка : 40 мс. (1, 00 видеокадр)
    Время предзагрузки промежутка : 500 мс.
    Аудио #2
    Идентификатор : 2
    Формат : AC-3
    Формат/Информация : Audio Coding 3
    Расширение режима : CM (complete main)
    Параметр Endianness формата : Big
    Идентификатор кодека : 2000
    Продолжительность : 1 ч. 23 м.
    Вид битрейта : Постоянный
    Битрейт : 192 Кбит/сек
    Каналы : 2 канала
    Расположение каналов : Front: L R
    Частота : 48, 0 КГц
    Метод сжатия : С потерями
    Размер потока : 115 Мбайт (8%)
    Выравнивание : Соединение по промежуткам
    Продолжительность промежутка : 40 мс. (1, 00 видеокадр)
    Время предзагрузки промежутка : 512 мс.


    Скриншоты для ознакомления




    Онлайн видео Я тебя люблю, я тоже не люблю



    Я тебя люблю, я тоже не люблю/Je taime moi non plus (1976) DVDRip [VO]
    загрузка...
    Рейтинг →
     (голосов: 1, оценка 4/5, голосовать можно 1 раз )

    Другие торренты по теме:

  • Гийом Мюссо | Потому что я тебя люблю (2016) [MP3]
  • Сэм Макбратни | Знаешь как, я тебя люблю (2006) [DJVU]
  • Светлана Тернова - Я так тебя люблю (2009) [MP3|320 Kbps] <Шансон>
  • Светлана Тернова - Я так тебя люблю (2009) [FLAC|Lossless|image + .cue] <Шансон>
  • Александр Пономарев - Я люблю тебя / Олександр Пономарьов - Я люблю тебе (2016) WEB-DL [h.264 / 1080p-LQ]
  • Рио, я люблю тебя / Rio, Eu Te Amo (2014) WEB-DLRip [Line]
  • Люблю тебя, чувак / I Love You, Man (2009) BDRip
  • Рио, я люблю тебя / Rio, Eu Te Amo (2014) WEB-DLRip [576p] iPad скачать через торрент бесплатно


    • Комментарии (0):

      Информация

      Информация

        Посетители, находящиеся в группе Гости, не могут оставлять комментарии в данной новости.

        ↓ Меню




        ↓ Опрос

        Вы добавили сайт в закладки?
        Да
        Нет


        Top 10 за месяц (Фильмы)