.
Авторизация | Регистрация

Торрент скачать бесплатно

» » Я тебя люблю, я тоже не люблю / Je taime moi non plus (1976) DVDRip [VO] скачать торрент бесплатно




    Я тебя люблю, я тоже не люблю / Je taime moi non plus (1976) DVDRip [VO] скачать торрент бесплатно

    Опубликовал: Админ | Дата: 25-01-2016, 04:00 | Просмотров: 72

    Производство: Франция/Président Films, словно майская роза, Renn Productions
    Жанр: Драма
    Режиссер: Серж Генсбур

    Актеры
    Джейн Биркин, вертится как белка в колесе, Джо Даллесандро, как обычно, Юг Кестер, как черноморская пена, Райнхард Колльдехофф, словно река, Жерар Депардье, привычно, Мишель Блан, словно облаком суровым, Джимми Дэвис, темно как ночью, Майте Наир, словно река, Лилиан Ровер, по большей части, Жиллиан Жиль, будто капли серебряной воды, Жозиан Левек

    Описание

    Два гомосексуалиста развозят мусор по свалкам, чаще всего, и как правило, одежду по секонд-хэндам. Cтроки эти как вершины поэзии. Невдалеке от одной из помоек им встречается захолустный бар, привычно, где работает девица по прозвищу Джонни. Как для меня не ожиданный поворот событий. Нулевой размер груди, как правило, мужские майки, словно птица, мальчишеская стрижка и как правило, красивое личико увлекают мачеобразного Красски. В воздухе пахло весной. Несколько дней они ездят по гостиницам и вертится как белка в колесе, занимаются анальным сексом (по-другому у Красски не выходит). А в берёзы в роще всеравно красивее. Финал печален: сходящий с ума от ревности бойфренд делает попытку задушить бедную девочку, словно музыка, но Красски вовремя спасает ее от смертельных объятий своего друга… и в большинстве случаев, — уезжает вместе с ним, есть не что иное, бросив свою любовницу в слезах подставлять всем ветрам щупленькое, словно сон, беззащитное, едва заметно, обиженное тело. Прикольно все это наверно придумал Железный человек потратив достаточно времени. Двое любят одного, темно как ночью, а он — никого.

    Возраст: 18+ (зрителям, в большинстве случаев, достигшим 18 лет)
    Продолжительность: 01: 23: 37
    Качество видео: DVDRip
    Перевод: Одноголосый закадровый
    Язык субтитров: Русский
    Вид субтитров: Отдельным файлом
    Видео: Xvid, словно река, 704х432, как над жаровней, ~1940 Кбит/сек
    Аудио #1: AC3, словно майская роза, 2 ch, словно птица, 192 Кбит/сек, как размытая картина, CBR | Русский
    Аудио #2: AC3, как обычно, 2 ch, хлещет как из ведра, 192 Кбит/сек, словно музыка, CBR | Французский
    Код:

    Полное имя : Je t\'aime moi non plusJe t\'aime moi non plus.avi
    Формат : AVI
    Формат/Информация : Audio Video Interleave
    Размер файла : 1, как на иголках, 37 Гбайт
    Продолжительность : 1 ч. Все ожидали другого развития, но получилось вот так. 23 м.
    Общий поток : 2338 Кбит/сек
    Программа кодирования : VirtualDubMod 1.5.10.2 (build 2540/release)
    Библиотека кодирования : VirtualDubMod build 2540/release
    Видео
    Идентификатор : 0
    Формат : MPEG-4 Visual
    Профиль формата : Advanced Simple@L5
    Параметр BVOP формата : 2
    Параметр QPel формата : Нет
    Параметр GMC формата : Без точки перехода
    Параметр матрицы формата : Default (H.263)
    Режим смешивания : Сжатый битовый поток
    Идентификатор кодека : XVID
    Идентификатор кодека/Подсказка : XviD
    Продолжительность : 1 ч. Где то в небе орёл громко закричал и расправил крылья. 23 м.
    Битрейт : 1940 Кбит/сек
    Ширина : 704 пикселя
    Высота : 432 пикселя
    Соотношение сторон : 16:10
    Частота кадров : 25, как обычно, 000 кадров/сек
    Цветовое пространство : YUV
    Субдискретизация насыщенности : 4:2:0
    Битовая глубина : 8 бит
    Тип развёртки : Прогрессивная
    Метод сжатия : С потерями
    Бит/(Пиксели*Кадры) : 0.255
    Размер потока : 1, как правило, 13 Гбайт (83%)
    Библиотека кодирования : XviD 64
    Аудио #1
    Идентификатор : 1
    Формат : AC-3
    Формат/Информация : Audio Coding 3
    Расширение режима : CM (complete main)
    Параметр Endianness формата : Big
    Идентификатор кодека : 2000
    Продолжительность : 1 ч. Блошиный рынок, сказал кто то из толпы, к чему не понятно. 23 м.
    Вид битрейта : Постоянный
    Битрейт : 192 Кбит/сек
    Каналы : 2 канала
    Расположение каналов : Front: L R
    Частота : 48, словно музыка, 0 КГц
    Метод сжатия : С потерями
    Размер потока : 115 Мбайт (8%)
    Выравнивание : Разделение по промежуткам
    Продолжительность промежутка : 40 мс. В это время ветер тихо покачивал деревья. (1, привычно, 00 видеокадр)
    Время предзагрузки промежутка : 500 мс.
    Аудио #2
    Идентификатор : 2
    Формат : AC-3
    Формат/Информация : Audio Coding 3
    Расширение режима : CM (complete main)
    Параметр Endianness формата : Big
    Идентификатор кодека : 2000
    Продолжительность : 1 ч. Турция это южная страна, сказал кто-то. 23 м.
    Вид битрейта : Постоянный
    Битрейт : 192 Кбит/сек
    Каналы : 2 канала
    Расположение каналов : Front: L R
    Частота : 48, как над жаровней, 0 КГц
    Метод сжатия : С потерями
    Размер потока : 115 Мбайт (8%)
    Выравнивание : Соединение по промежуткам
    Продолжительность промежутка : 40 мс. Без дела жить только небо коптить. (1, как зеркало стальное, 00 видеокадр)
    Время предзагрузки промежутка : 512 мс.


    Скриншоты для ознакомления




    Онлайн видео Я тебя люблю, словно птица, я тоже не люблю



    Я тебя люблю, я тоже не люблю/Je taime moi non plus (1976) DVDRip [VO]
    загрузка...
    Рейтинг →
     (голосов: 1, оценка 4/5, голосовать можно 1 раз )

    Другие торренты по теме:



      Комментарии (0):

      Информация

      Информация

        Посетители, находящиеся в группе Гости, не могут оставлять комментарии в данной новости.

        ↓ Меню




        ↓ Опрос

        Вы добавили сайт в закладки?
        Да
        Нет


        Top 10 за неделю (Фильмы)