.
Авторизация | Регистрация
Хочешь лучшие торренты? Добавь свой email!
Добавить

Торрент скачать бесплатно

» » Сотня / 100 / The 100 (2016) WEB-DLRip (сезон 3, серии 1 из 16) (BaibaKo) (обновляемая) торрент скачать бесплатно




    Сотня / 100 / The 100 (2016) WEB-DLRip (сезон 3, серии 1 из 16) (BaibaKo) (обновляемая) торрент скачать бесплатно

    Опубликовал: Админ | Дата: 24-01-2016, 04:12 | Просмотров: 50

    Производство: США, Bonanza Productions, Alloy Entertainment, Warner Bros. Television
    Жанр: фантастика, драма, детектив
    Режиссер: Дин Уайт, Эд Фрэйман, Майрзи Алмас.

    Актеры
    Элайза Тейлор, Мари Авгеропулос, Боб Морли, Генри Йен Кьюсик, Исайя Вашингтон, Пейдж Турко, Рики Уиттл, Ричард Хэрмон, Линдси Морган, Девон Бостик и др.

    Описание

    События в сериале начинают разворачиваться по прошествии девяносто семи лет после того, как всю цивилизацию уничтожила страшная атомная война. Высоко в космосе на орбите Земли летает большой космический корабль, где находятся те, кто выжил после страшной катастрофы. Именно с этого последнего пристанища людей на Землю отправляют космический челнок, на котором находятся сто малолетних преступников…

    Возраст: Зрителям, достигшим 16 лет
    Продолжительность: ~00: 42: 00 серия
    Качество видео: WEB-DLRip
    Перевод: Многоголосый закадровый, профессиональный - BaibaKo
    Видео: Xvid, 720x400 (16: 9), ~1500 Kbps
    Аудио 1 Rus: MP3, 48 kHz, 2 ch, 192 Kbps - многоголосый закадровый
    Аудио 2 Eng: MP3, 48 kHz, 2 ch, 192 Kbps Kbps - оригинал
    Код:

    Общее
    Полное имя : G:The 100 (S03)The100.s03e01.WEB-DLRip.XviD.Rus.Eng.BaibaKo.avi
    Формат : AVI
    Формат/Информация : Audio Video Interleave
    Размер файла : 576 Мбайт
    Продолжительность : 42 м.
    Общий поток : 1891 Кбит/сек
    Видео
    Идентификатор : 0
    Формат : MPEG-4 Visual
    Профиль формата : Advanced Simple@L5
    Параметр BVOP формата : 2
    Параметр QPel формата : Нет
    Параметр GMC формата : Без точки перехода
    Параметр матрицы формата : Default (H.263)
    Идентификатор кодека : XVID
    Идентификатор кодека/Подсказка : XviD
    Продолжительность : 42 м.
    Битрейт : 1500 Кбит/сек
    Ширина : 720 пикселей
    Высота : 400 пикселей
    Соотношение сторон : 16:9
    Частота кадров : 23, 976 кадра/сек
    Цветовое пространство : YUV
    Субдискретизация насыщенности : 4:2:0
    Битовая глубина : 8 бит
    Тип развёртки : Прогрессивная
    Метод сжатия : С потерями
    Бит/(Пиксели*Кадры) : 0.217
    Размер потока : 457 Мбайт (79%)
    Библиотека кодирования : XviD 65
    Аудио #1
    Идентификатор : 1
    Формат : MPEG Audio
    Версия формата : Version 1
    Профиль формата : Layer 3
    Режим : Joint stereo
    Расширение режима : MS Stereo
    Идентификатор кодека : 55
    Идентификатор кодека/Подсказка : MP3
    Продолжительность : 42 м.
    Вид битрейта : Постоянный
    Битрейт : 192 Кбит/сек
    Каналы : 2 канала
    Частота : 48, 0 КГц
    Метод сжатия : С потерями
    Размер потока : 58, 5 Мбайт (10%)
    Выравнивание : Соединение по промежуткам
    Продолжительность промежутка : 167 мс. (4, 00 видеокадра)
    Время предзагрузки промежутка : 216 мс.
    Заголовок : The 100-301-russian
    Библиотека кодирования : LAME3.99r
    Настройки программы : -m j -V 4 -q 3 -lowpass 18.6 -b 192
    Аудио #2
    Идентификатор : 2
    Формат : MPEG Audio
    Версия формата : Version 1
    Профиль формата : Layer 3
    Режим : Joint stereo
    Расширение режима : MS Stereo
    Идентификатор кодека : 55
    Идентификатор кодека/Подсказка : MP3
    Продолжительность : 42 м.
    Вид битрейта : Постоянный
    Битрейт : 192 Кбит/сек
    Каналы : 2 канала
    Частота : 48, 0 КГц
    Метод сжатия : С потерями
    Размер потока : 58, 5 Мбайт (10%)
    Выравнивание : Соединение по промежуткам
    Продолжительность промежутка : 167 мс. (4, 00 видеокадра)
    Время предзагрузки промежутка : 216 мс.
    Заголовок : The 100 01 English
    Библиотека кодирования : LAME3.99r
    Настройки программы : -m j -V 4 -q 3 -lowpass 18.6 -b 192


    Скриншоты для ознакомления




    Онлайн видео Сотня



    Сотня/100/The 100 (2016) WEB-DLRip (сезон 3, серии 1 из 16) (BaibaKo) (обновляемая)
    загрузка...
    Рейтинг →
     (голосов: 1, оценка 5/5, голосовать можно 1 раз )

    Другие торренты по теме:

  • 100 / Сотня / The 100 (2014) (Сезон 2, серия 1 из 16) WEB-DLRip [BaibaKo] (Обновляемая)
  • 100 / Сотня / The 100 (2014) WEB-DLRip (сезон 2, серии 1 из 16) LostFilm (обновляемая) скачать через торрент бесплатно
  • 100 / Сотня / The 100 (2014) WEB-DLRip (сезон 2, серии 1-2 из 16) AlexFilm (обновляемая) скачать через торрент бесплатно
  • Сотня / 100 / The 100 (2016) WEB-DLRip (сезон 3, серии 1 из 16) LostFilm (обновляемая)
  • Сотня / 100 / The 100 (2016) WEB-DLRip (сезон 3, серии 1 из 16) AlexFilm (обновляемая)
  • 100 / Сотня / The 100 (2016) WEB-DLRip [H.264] (сезон 3, серии 1 из 16) LostFilm [MP4|1280x720]
  • 100 / Сотня / The 100 (2016) WEB-DLRip [H.264] (сезон 3, серии 1 из 16) BaibaKo [MP4|720x400]
  • Сотня / 100 / The 100 (2016) WEB-DLRip (сезон 3, серии 1 из 16) NewStudio (обновляемая)


    • Комментарии (0):

      Информация

      Информация

        Посетители, находящиеся в группе Гости, не могут оставлять комментарии в данной новости.

        ↓ Меню




        ↓ Опрос

        Вы добавили сайт в закладки?
        Да
        Нет


        Top 10 за месяц (Фильмы)