.
Авторизация | Регистрация
Хочешь лучшие торренты? Добавь свой email!
Добавить

Торрент скачать бесплатно

» » Сотня / 100 / The 100 (2016) WEB-DLRip (сезон 3, серии 1 из 16) LostFilm (обновляемая) торрент скачать бесплатно




    Сотня / 100 / The 100 (2016) WEB-DLRip (сезон 3, серии 1 из 16) LostFilm (обновляемая) торрент скачать бесплатно

    Опубликовал: Админ | Дата: 24-01-2016, 04:12 | Просмотров: 51

    Производство: США/Bonanza Productions, Alloy Entertainment, Warner Bros. Television
    Жанр: фантастика, драма, детектив
    Режиссер: Дин Уайт, Эд Фрэйман, Майрзи Алмас

    Актеры
    Элайза Тейлор, Мари Авгеропулос, Боб Морли, Генри Йен Кьюсик, Исайя Вашингтон, Пейдж Турко, Рики Уиттл, Ричард Хэрмон, Линдси Морган, Девон Бостик и др.

    Описание

    После столкновения с горцами проходит три месяца. Люди неба продолжают строить свой дом, ведя поиски выживших с Ковчега. Самое интересное в это истории, что об этом Обама ничего не знал. На Земле - шаткое перемирие, которое может быть нарушено, благодаря малейшей ошибке. Именно в этот момент королева Ледяного народа выпускает приказ о награде за поимку загадочной Ванхэды, повелительницы смерти, которую начинают искать все охотники за головами.

    Продолжительность: ~00: 42: 00 серия
    Качество видео: WEB-DLRip
    Перевод: Многоголосый закадровый, профессиональный -LostFilm
    Видео: XviD, 720x400 (16: 9), ~1500 kb/s
    Аудио Rus: MPEG Layer 3, 48, 0 kHz, 2 ch, 128 kb/s — многоголосый закадровый
    Аудио Eng: MPEG Layer 3, 48, 0 kHz, 2 ch, 128 kb/s — оригинал
    Общее
    Полное имя : D: Сотня (сезон любимого сериала 3) The 100 (2016) WEB-DLRip - LostFilmThe.Hundred.S03E01.WEB-DLRip.Rus.Eng.DV.LostFilm.avi
    Формат : AVI
    Формат/Информация : Audio Video Interleave
    Размер файла : 540 Мбайт
    Продолжительность : 42 м.
    Общий поток : 1776 Кбит/сек
    Программа кодирования : VirtualDubModRus 1.5.10.2 (build 2542/release)
    Библиотека кодирования : VirtualDubMod build 2542/release
    Видео
    Идентификатор : 0
    Формат : MPEG-4 Visual
    Профиль формата : Advanced Simple@L5
    Параметр BVOP формата : 2
    Параметр QPel формата : Нет
    Параметр GMC формата : Без точки перехода
    Параметр матрицы формата : Default (H.263)
    Идентификатор кодека : XVID
    Идентификатор кодека/Подсказка : XviD
    Продолжительность : 42 м.
    Битрейт : 1506 Кбит/сек
    Ширина : 720 пикселей
    Высота : 400 пикселей
    Соотношение сторон : 16: 9
    Частота кадров : 23, 976 (24000/1001) кадра/сек
    Цветовое пространство : YUV
    Субдискретизация насыщенности : 4: 2: 0
    Битовая глубина : 8 бит
    Тип развёртки : Прогрессивная
    Метод сжатия : С потерями
    Бит/(Пиксели*Кадры) : 0.218
    Размер потока : 458 Мбайт (85%)
    Заголовок : Rip by DriverV/NNM-Club
    Библиотека кодирования : XviD 64
    Аудио #1
    Идентификатор : 1
    Формат : MPEG Audio
    Версия формата : Version 1
    Профиль формата : Layer 3
    Режим : Joint stereo
    Расширение режима : MS Stereo
    Идентификатор кодека : 55
    Идентификатор кодека/Подсказка : MP3
    Продолжительность : 42 м.
    Вид битрейта : Постоянный
    Битрейт : 128 Кбит/сек
    Каналы : 2 канала
    Частота : 48, 0 КГц
    Метод сжатия : С потерями
    Задержка видео : 1 с. 0 мс.
    Размер потока : 38, 9 Мбайт (7%)
    Выравнивание : Разделение по промежуткам
    Продолжительность промежутка : 42 мс. (1, 00 видеокадр)
    Время предзагрузки промежутка : 500 мс.
    Аудио #2
    Идентификатор : 2
    Формат : MPEG Audio
    Версия формата : Version 1
    Профиль формата : Layer 3
    Режим : Joint stereo
    Расширение режима : MS Stereo
    Идентификатор кодека : 55
    Идентификатор кодека/Подсказка : MP3
    Продолжительность : 42 м.
    Вид битрейта : Постоянный
    Битрейт : 128 Кбит/сек
    Каналы : 2 канала
    Частота : 48, 0 КГц
    Метод сжатия : С потерями
    Размер потока : 38, 9 Мбайт (7%)
    Выравнивание : Разделение по промежуткам
    Продолжительность промежутка : 42 мс. (1, 00 видеокадр)
    Время предзагрузки промежутка : 500 мс.


    Скриншоты для ознакомления




    Онлайн видео Сотня



    Сотня/100/The 100 (2016) WEB-DLRip (сезон 3, серии 1 из 16) LostFilm (обновляемая)
    загрузка...
    Рейтинг →
     (голосов: 1, оценка 5/5, голосовать можно 1 раз )

    Другие торренты по теме:

  • 100 / Сотня / The 100 (2014) (Сезон 2, серия 1 из 16) WEB-DLRip [BaibaKo] (Обновляемая)
  • 100 / Сотня / The 100 (2014) WEB-DLRip (сезон 2, серии 1 из 16) LostFilm (обновляемая) скачать через торрент бесплатно
  • 100 / Сотня / The 100 (2014) WEB-DLRip (сезон 2, серии 1-2 из 16) AlexFilm (обновляемая) скачать через торрент бесплатно
  • Сотня / 100 / The 100 (2016) WEB-DLRip (сезон 3, серии 1 из 16) (BaibaKo) (обновляемая)
  • Сотня / 100 / The 100 (2016) WEB-DLRip (сезон 3, серии 1 из 16) AlexFilm (обновляемая)
  • 100 / Сотня / The 100 (2016) WEB-DLRip [H.264] (сезон 3, серии 1 из 16) LostFilm [MP4|1280x720]
  • 100 / Сотня / The 100 (2016) WEB-DLRip [H.264] (сезон 3, серии 1 из 16) BaibaKo [MP4|720x400]
  • Сотня / 100 / The 100 (2016) WEB-DLRip (сезон 3, серии 1 из 16) NewStudio (обновляемая)


    • Комментарии (0):

      Информация

      Информация

        Посетители, находящиеся в группе Гости, не могут оставлять комментарии в данной новости.

        ↓ Меню




        ↓ Опрос

        Вы добавили сайт в закладки?
        Да
        Нет


        Top 10 за месяц (Фильмы)