.
Авторизация | Регистрация
Хочешь лучшие торренты? Добавь свой email!
Добавить

Торрент скачать бесплатно

» » Легенды завтрашнего дня / DCs Legends of Tomorrow (2016) WEB-DLRip (сезон 1, серии 1 из 16) LostFilm (обновляемая) торрент скачать бесплатно




    Легенды завтрашнего дня / DCs Legends of Tomorrow (2016) WEB-DLRip (сезон 1, серии 1 из 16) LostFilm (обновляемая) торрент скачать бесплатно

    Опубликовал: Админ | Дата: 24-01-2016, 04:12 | Просмотров: 40

    Производство: США/Berlanti Productions, Bonanza Productions, DC Entertainment
    Жанр: фантастика, боевик
    Режиссер: Дермотт Даунс, Глен Винтер, Джо Данте

    Актеры
    Виктор Гарбер, Брэндон Рут, Кейти Лотц, Артур Дарвилл, Сиара Рене, Франц Драмех, Доминик Пёрселл, Вентворт Миллер, Каспер Крамп, Фальк Хеншел и др.

    Описание

    Увидев будущее, которого обязательно нужно избежать, Рип Хантер, путешественник во времени, собирает команду из героев и злодеев, чтобы противостоять смертельной угрозе. На кону стоит не только наша планета, но и все время в целом. Сможет ли эта команда победить бессмертное зло, абсолютно непохожее на то, что они видели раньше?

    Дата мировой премьеры: 21 января 2016
    Продолжительность: ~00: 44: 00 серия
    Качество видео: WEB-DLRip
    Перевод: Многоголосый закадровый, профессиональный -LostFilm
    Видео: XviD, 720x400 (16: 9), ~1500 kb/s
    Аудио Rus: MPEG Layer 3, 48, 0 kHz, 2 ch, 128 kb/s — многоголосый закадровый
    Аудио Eng: MPEG Layer 3, 48, 0 kHz, 2 ch, 128 kb/s — оригинал
    Общее
    Полное имя : D: Легенды завтрашнего дня (сезон любимого сериала 1) DC\'s Legends of Tomorrow (2016) WEB-DLRip - LostFilmDCs.Legends.of.Tomorrow.S01E01.WEB-DLRip.Rus.Eng.DV.LostFilm.avi
    Формат : AVI
    Формат/Информация : Audio Video Interleave
    Размер файла : 566 Мбайт
    Продолжительность : 44 м.
    Общий поток : 1779 Кбит/сек
    Программа кодирования : VirtualDubModRus 1.5.10.2 (build 2542/release)
    Библиотека кодирования : VirtualDubMod build 2542/release
    Видео
    Идентификатор : 0
    Формат : MPEG-4 Visual
    Профиль формата : Advanced Simple@L5
    Параметр BVOP формата : 2
    Параметр QPel формата : Нет
    Параметр GMC формата : Без точки перехода
    Параметр матрицы формата : Default (H.263)
    Идентификатор кодека : XVID
    Идентификатор кодека/Подсказка : XviD
    Продолжительность : 44 м.
    Битрейт : 1509 Кбит/сек
    Ширина : 720 пикселей
    Высота : 400 пикселей
    Соотношение сторон : 16: 9
    Частота кадров : 23, 976 (24000/1001) кадра/сек
    Цветовое пространство : YUV
    Субдискретизация насыщенности : 4: 2: 0
    Битовая глубина : 8 бит
    Тип развёртки : Прогрессивная
    Метод сжатия : С потерями
    Бит/(Пиксели*Кадры) : 0.218
    Размер потока : 480 Мбайт (85%)
    Заголовок : Rip by DriverV/NNM-Club
    Библиотека кодирования : XviD 64
    Аудио #1
    Идентификатор : 1
    Формат : MPEG Audio
    Версия формата : Version 1
    Профиль формата : Layer 3
    Режим : Joint stereo
    Расширение режима : MS Stereo
    Идентификатор кодека : 55
    Идентификатор кодека/Подсказка : MP3
    Продолжительность : 44 м.
    Вид битрейта : Постоянный
    Битрейт : 128 Кбит/сек
    Каналы : 2 канала
    Частота : 48, 0 КГц
    Метод сжатия : С потерями
    Задержка видео : 1 с. 100 мс.
    Размер потока : 40, 7 Мбайт (7%)
    Выравнивание : Разделение по промежуткам
    Продолжительность промежутка : 42 мс. (1, 00 видеокадр)
    Время предзагрузки промежутка : 500 мс.
    Аудио #2
    Идентификатор : 2
    Формат : MPEG Audio
    Версия формата : Version 1
    Профиль формата : Layer 3
    Режим : Joint stereo
    Расширение режима : MS Stereo
    Идентификатор кодека : 55
    Идентификатор кодека/Подсказка : MP3
    Продолжительность : 44 м.
    Вид битрейта : Постоянный
    Битрейт : 128 Кбит/сек
    Каналы : 2 канала
    Частота : 48, 0 КГц
    Метод сжатия : С потерями
    Размер потока : 40, 7 Мбайт (7%)
    Выравнивание : Разделение по промежуткам
    Продолжительность промежутка : 42 мс. (1, 00 видеокадр)
    Время предзагрузки промежутка : 500 мс.


    Скриншоты для ознакомления




    Онлайн видео Легенды завтрашнего дня



    Легенды завтрашнего дня/DCs Legends of Tomorrow (2016) WEB-DLRip (сезон 1, серии 1 из 16) LostFilm (обновляемая)
    загрузка...
    Рейтинг →
     (голосов: 1, оценка 3/5, голосовать можно 1 раз )

    Другие торренты по теме:

  • Легенды завтрашнего дня / DCs Legends of Tomorrow (2016) WEB-DL [H.264 / 1080p-LQ] (сезон 1, серии 1 из 16) LostFilm (обновляемая)
  • Легенды завтрашнего дня / DCs Legends of Tomorrow (2016) WEB-DLRip (сезон 1, серии 1 из 16) BaibaKo (обновляемая)
  • Легенды завтрашнего дня / DCs Legends of Tomorrow (2016) WEB-DLRip (сезон 1, серии 1 из 16) NewStudio (обновляемая)
  • Легенды завтрашнего дня / DCs Legends of Tomorrow (2016) WEB-DL [H.264] (сезон 1, серии 1 из 16) LostFilm [MP4|1280x718] (обновляемая)
  • Легенды завтрашнего дня / DCs Legends of Tomorrow (2016) WEB-DL [H.264 / 720p-LQ] (сезон 1, серии 1-4 из 16) BaibaKo (обновляемая)
  • Легенды завтрашнего дня / DCs Legends of Tomorrow (2016) HDTV [H.264 / 720p-LQ] (сезон 1, серия 12-13 из 16) [EN / RU, EN SUB]
  • Легенды завтрашнего дня / DCs Legends of Tomorrow (2016) WEB-DL [H.264 / 720p-LQ] (сезон 1, серии 1-15 из 16) BaibaKo (обновляемая)
  • Легенды завтрашнего дня / DCs Legends of Tomorrow (2016) WEB-DL [H.264] (сезон 2, серии 1-5 из 17) LostFilm [MP4|1280x718]


    • Комментарии (0):

      Информация

      Информация

        Посетители, находящиеся в группе Гости, не могут оставлять комментарии в данной новости.

        ↓ Меню




        ↓ Опрос

        Вы добавили сайт в закладки?
        Да
        Нет


        Top 10 за месяц (Фильмы)