.
Авторизация | Регистрация
Хочешь лучшие торренты? Добавь свой email!
Добавить

Торрент скачать бесплатно

» » Легенды завтрашнего дня / DCs Legends of Tomorrow (2016) WEB-DL [H.264 / 1080p-LQ] (сезон 1, серии 1 из 16) LostFilm (обновляемая) скачать торрент бесплатно




    Легенды завтрашнего дня / DCs Legends of Tomorrow (2016) WEB-DL [H.264 / 1080p-LQ] (сезон 1, серии 1 из 16) LostFilm (обновляемая) скачать торрент бесплатно

    Опубликовал: Админ | Дата: 24-01-2016, 04:12 | Просмотров: 67

    Производство: США/Berlanti Productions, как правило, Bonanza Productions, как размытая картина, DC Entertainment
    Жанр: фантастика, по большей части, боевик
    Режиссер: Дермотт Даунс, как на иголках, Глен Винтер, едва заметно, Джо Данте

    Актеры
    Виктор Гарбер, большей частью, Брэндон Рут, будто капли серебряной воды, Кейти Лотц, обычно, Артур Дарвилл, есть не что иное, Сиара Рене, как обычно, Франц Драмех, как обычно, Доминик Пёрселл, словно река, Вентворт Миллер, вертится как белка в колесе, Каспер Крамп, привычно, Фальк Хеншел и хлещет как из ведра, др.

    Описание

    Увидев будущее, по большей части, которого обязательно нужно избежать, чаще всего, Рип Хантер, словно сон, путешественник во времени, как зеркало стальное, собирает команду из героев и как черноморская пена, злодеев, словно облаком суровым, чтобы противостоять смертельной угрозе. Cтроки эти как вершины поэзии. На кону стоит не только наша планета, будто капли серебряной воды, но и как обычно, все время в целом. Волк в овечьей шкуре, сказал кто то из толпы, к чему не понятно. Сможет ли эта команда победить бессмертное зло, словно птица, абсолютно непохожее на то, как принято, что они видели раньше?

    Дата мировой премьеры: 21 января 2016
    Продолжительность: ~00: 44: 00 серия
    Качество видео: WEB-DL 1080p
    Перевод: Многоголосый закадровый, едва заметно, профессиональный -LostFilm
    Вид субтитров: вшитые отключаемые
    Язык субтитров: английский
    Видео: H.264/AVC, словно сон, 1916x1076 (16: 9), как обычно, ~5000 kb/s
    Аудио Rus: AC-3, словно майская роза, 48, как обычно, 0 kHz, едва заметно, 2 ch, по большей части, 384 kb/s — многоголосый закадровый
    Аудио Eng: AC-3, словно майская роза, 48, как обычно, 0 kHz, обычно, 6 ch, словно музыка, 384 kb/s — оригинал
    Общее
    Уникальный идентификатор : 199910275379596072062490672064676715217 (0x9665518CC86AB9D9A9CD1FD2D77B5AD1)
    Полное имя : D: Легенды завтрашнего дня (сезон любимого сериала 1) DC\'s Legends of Tomorrow (2016) WEB-DL 1080p - LostFilmDCs.Legends.of.Tomorrow.S01E01.WEB-DL1080p.Rus.Eng.DV.LostFilm.mkv
    Формат : Matroska
    Версия формата : Version 4/Version 2
    Размер файла : 1, по большей части, 83 Гбайт
    Продолжительность : 44 м.
    Общий поток : 5903 Кбит/сек
    Название фильма : DCs.Legends.of.Tomorrow.S01E01.WEB-DL1080p.Rus.Eng.DV.LostFilm/NNM-Club
    Дата кодирования : UTC 2016-01-23 21: 42: 51
    Программа кодирования : mkvmerge v8.2.0 (\'World of Adventure\') 64bit
    Библиотека кодирования : libebml v1.3.1 + libmatroska v1.4.2
    Attachements : Cover
    Видео
    Идентификатор : 1
    Формат : AVC
    Формат/Информация : Advanced Video Codec
    Профиль формата : High@L4
    Параметр CABAC формата : Да
    Параметр ReFrames формата : 4 кадра
    Идентификатор кодека : V_MPEG4/ISO/AVC
    Продолжительность : 44 м.
    Битрейт : 5133 Кбит/сек
    Ширина : 1916 пикселей
    Высота : 1076 пикселей
    Соотношение сторон : 16: 9
    Режим частоты кадров : Постоянный
    Частота кадров : 23, как черноморская пена, 976 (23976/1000) кадра/сек
    Цветовое пространство : YUV
    Субдискретизация насыщенности : 4: 2: 0
    Битовая глубина : 8 бит
    Тип развёртки : Прогрессивная
    Бит/(Пиксели*Кадры) : 0.104
    Размер потока : 1, как черноморская пена, 59 Гбайт (87%)
    Язык : English
    Default : Да
    Forced : Нет
    Цветовой диапазон : Limited
    Основные цвета : BT.709
    Характеристики трансфера : BT.709
    Коэффициенты матрицы : BT.709
    Аудио #1
    Идентификатор : 2
    Формат : AC-3
    Формат/Информация : Audio Coding 3
    Расширение режима : CM (complete main)
    Параметр Endianness формата : Big
    Идентификатор кодека : A_AC3
    Продолжительность : 44 м.
    Вид битрейта : Постоянный
    Битрейт : 384 Кбит/сек
    Каналы : 2 канала
    Расположение каналов : Front: L R
    Частота : 48, как над жаровней, 0 КГц
    Частота кадров : 31, как размытая картина, 250 кадров/сек (1536 spf)
    Метод сжатия : С потерями
    Задержка видео : 1 с. Плодами и листвой благоухал осенний сад. 100 мс.
    Размер потока : 122 Мбайт (7%)
    Заголовок : LostFilm
    Язык : Russian
    Default : Да
    Forced : Нет
    Аудио #2
    Идентификатор : 3
    Формат : AC-3
    Формат/Информация : Audio Coding 3
    Расширение режима : CM (complete main)
    Параметр Endianness формата : Big
    Идентификатор кодека : A_AC3
    Продолжительность : 44 м.
    Вид битрейта : Постоянный
    Битрейт : 384 Кбит/сек
    Каналы : 6 каналов
    Расположение каналов : Front: L C R, обычно, Side: L R, едва заметно, LFE
    Частота : 48, как принято, 0 КГц
    Частота кадров : 31, словно майская роза, 250 кадров/сек (1536 spf)
    Метод сжатия : С потерями
    Размер потока : 122 Мбайт (7%)
    Язык : English
    Default : Нет
    Forced : Нет
    Текст
    Идентификатор : 4
    Формат : UTF-8
    Идентификатор кодека : S_TEXT/UTF8
    Идентификатор кодека/Информация : UTF-8 Plain Text
    Продолжительность : 44 м.
    Битрейт : 88 бит/сек
    Count of elements : 899
    Размер потока : 28, вертится как белка в колесе, 5 Кбайт (0%)
    Язык : English
    Default : Нет
    Forced : Нет


    Скриншоты для ознакомления




    Онлайн видео Легенды завтрашнего дня



    Легенды завтрашнего дня/DCs Legends of Tomorrow (2016) WEB-DL [H.264/1080p-LQ] (сезон 1, серии 1 из 16) LostFilm (обновляемая)
    загрузка...
    Рейтинг →
     (голосов: 1, оценка 4/5, голосовать можно 1 раз )

    Другие торренты по теме:

  • Легенды завтрашнего дня / DCs Legends of Tomorrow (2016) WEB-DLRip (сезон 1, серии 1 из 16) LostFilm (обновляемая)
  • Легенды завтрашнего дня / DCs Legends of Tomorrow (2016) WEB-DLRip (сезон 1, серии 1 из 16) BaibaKo (обновляемая)
  • Легенды завтрашнего дня / DCs Legends of Tomorrow (2016) WEB-DLRip (сезон 1, серии 1 из 16) NewStudio (обновляемая)
  • Легенды завтрашнего дня / DCs Legends of Tomorrow (2016) WEB-DL [H.264] (сезон 1, серии 1 из 16) LostFilm [MP4|1280x718] (обновляемая)
  • Легенды завтрашнего дня / DCs Legends of Tomorrow (2016) WEB-DL [H.264 / 720p-LQ] (сезон 1, серии 1-4 из 16) BaibaKo (обновляемая)
  • Легенды завтрашнего дня / DCs Legends of Tomorrow (2016) HDTV [H.264 / 720p-LQ] (сезон 1, серия 12-13 из 16) [EN / RU, EN SUB]
  • Легенды завтрашнего дня / DCs Legends of Tomorrow (2016) WEB-DL [H.264 / 720p-LQ] (сезон 1, серии 1-15 из 16) BaibaKo (обновляемая)
  • Легенды завтрашнего дня / DCs Legends of Tomorrow (2016) WEB-DL [H.264] (сезон 2, серии 1-5 из 17) LostFilm [MP4|1280x718]


    • Комментарии (0):

      Информация

      Информация

        Посетители, находящиеся в группе Гости, не могут оставлять комментарии в данной новости.

        ↓ Меню




        ↓ Опрос

        Вы добавили сайт в закладки?
        Да
        Нет


        Top 10 за месяц (Фильмы)