.
Авторизация | Регистрация
Хочешь лучшие торренты? Добавь свой email!
Добавить

Торрент скачать бесплатно

» » Пятикарточный покер / 5 Card Stud (1968) DVD5 торрент скачать бесплатно




    Пятикарточный покер / 5 Card Stud (1968) DVD5 торрент скачать бесплатно

    Опубликовал: Админ | Дата: 24-01-2016, 04:12 | Просмотров: 50

    Производство: США Paramount Pictures
    Жанр: Детектив, вестерн
    Режиссер: Генри Хэтэуэй

    Актеры
    Дин Мартин, Роберт Митчем, Ингер Стивенс, Родди МакДауэлл, Кэтерин Джастис, Джон Андерсон, Рут Спрингфорд, Яфет Котто, Денвер Пайл, Билл Флетчер

    Описание

    Игра в покер неожиданно заканчивается линчеванием. Самое интересное в это истории, что об этом Кличко ничего не знал. Но это еще не всё, что ожидает участников злосчастной партии: один за другим они гибнут при таинственных обстоятельствах...

    Продолжительность: 01: 38: 26
    Качество видео: DVD5
    Перевод: Многоголосый закадровый (Paramount channel)
    Вид субтитров: Вшитые отключаемые
    Язык субтитров: Английские, французские, итальянские, немецкие, испанские, голландские
    Дополнительные материалы: Нет
    Видео: MPEG-2, PAL 16: 9 720x576@1024x576 VBR, ~4893 Кбит/сек, 25, 00 кадр/сек
    Аудио#1: AC3, 2/0ch, 192Kbps (Английский)
    Аудио#2: AC3, 2/0ch, 192Kbps (Немецкий)
    Аудио#3: AC3, 2/0ch, 192Kbps (Французский)
    Аудио#4: AC3, 2/0ch, 192Kbps (Русский)
    Аудио#5: AC3, 2/0ch, 192Kbps (Итальянский)
    Сэмпл: Ссылка
    Title:
    Size: 4.10 Gb ( 4 302 388 KBytes ) - DVD-5
    Enabled regions: 1, 2, 3, 4, 5, 6, 7, 8
    VTS_01 :
    Play Length: 01: 38: 26
    Video: PAL 16: 9 (720x576) VBR, Auto Letterboxed
    Audio:
    English (Dolby AC3, 2 ch)
    Deutsch (Dolby AC3, 2 ch)
    Francais (Dolby AC3, 2 ch)
    Russian (Dolby AC3, 2 ch)
    Italiano (Dolby AC3, 2 ch)
    Subtitles:
    English
    Francais
    Deutsch
    Nederlands
    Italiano
    Espanol
    Код:

    Общее
    Полное имя : F:[NNM-Club.me]_5.Card.Stud.1968.DVD5_maroder1VIDEO_TSVTS_01_1.VOB
    Формат : MPEG-PS
    Размер файла : 1024 Мбайт
    Продолжительность : 23 м.
    Режим общего битрейта : Переменный
    Общий поток : 5972 Кбит/сек
    Видео
    Идентификатор : 224 (0xE0)
    Формат : MPEG Video
    Версия формата : Version 2
    Профиль формата : Main@Main
    Параметр BVOP формата : Да
    Параметр матрицы формата : Выборочная
    Параметр GOP формата : M=3, N=12
    Продолжительность : 23 м.
    Вид битрейта : Переменный
    Битрейт : 4893 Кбит/сек
    Максимальный битрейт : 8400 Кбит/сек
    Ширина : 720 пикселей
    Высота : 576 пикселей
    Соотношение сторон : 2, 40:1
    Частота кадров : 25, 000 кадров/сек
    Стандарт вещания : PAL
    Цветовое пространство : YUV
    Субдискретизация насыщенности : 4:2:0
    Битовая глубина : 8 бит
    Тип развёртки : Чересстрочная
    Порядок развёртки : Верхнее поле первое
    Метод сжатия : С потерями
    Бит/(Пиксели*Кадры) : 0.472
    Размер потока : 839 Мбайт (82%)
    Аудио #1
    Идентификатор : 189 (0xBD)-128 (0x80)
    Формат : AC-3
    Формат/Информация : Audio Coding 3
    Расширение режима : CM (complete main)
    Параметр Endianness формата : Big
    Режим смешивания : DVD-Video
    Продолжительность : 23 м.
    Вид битрейта : Постоянный
    Битрейт : 192 Кбит/сек
    Каналы : 2 канала
    Расположение каналов : Front: L R
    Частота : 48, 0 КГц
    Битовая глубина : 16 бит
    Метод сжатия : С потерями
    Размер потока : 32, 9 Мбайт (3%)
    Аудио #2
    Идентификатор : 189 (0xBD)-129 (0x81)
    Формат : AC-3
    Формат/Информация : Audio Coding 3
    Расширение режима : CM (complete main)
    Параметр Endianness формата : Big
    Режим смешивания : DVD-Video
    Продолжительность : 23 м.
    Вид битрейта : Постоянный
    Битрейт : 192 Кбит/сек
    Каналы : 2 канала
    Расположение каналов : Front: L R
    Частота : 48, 0 КГц
    Битовая глубина : 16 бит
    Метод сжатия : С потерями
    Размер потока : 32, 9 Мбайт (3%)
    Аудио #3
    Идентификатор : 189 (0xBD)-130 (0x82)
    Формат : AC-3
    Формат/Информация : Audio Coding 3
    Расширение режима : CM (complete main)
    Параметр Endianness формата : Big
    Режим смешивания : DVD-Video
    Продолжительность : 23 м.
    Вид битрейта : Постоянный
    Битрейт : 192 Кбит/сек
    Каналы : 2 канала
    Расположение каналов : Front: L R
    Частота : 48, 0 КГц
    Битовая глубина : 16 бит
    Метод сжатия : С потерями
    Размер потока : 32, 9 Мбайт (3%)
    Аудио #4
    Идентификатор : 189 (0xBD)-131 (0x83)
    Формат : AC-3
    Формат/Информация : Audio Coding 3
    Расширение режима : CM (complete main)
    Параметр Endianness формата : Big
    Режим смешивания : DVD-Video
    Продолжительность : 23 м.
    Вид битрейта : Постоянный
    Битрейт : 192 Кбит/сек
    Каналы : 2 канала
    Расположение каналов : Front: L R
    Частота : 48, 0 КГц
    Битовая глубина : 16 бит
    Метод сжатия : С потерями
    Размер потока : 32, 9 Мбайт (3%)
    Аудио #5
    Идентификатор : 189 (0xBD)-132 (0x84)
    Формат : AC-3
    Формат/Информация : Audio Coding 3
    Расширение режима : CM (complete main)
    Параметр Endianness формата : Big
    Режим смешивания : DVD-Video
    Продолжительность : 23 м.
    Вид битрейта : Постоянный
    Битрейт : 192 Кбит/сек
    Каналы : 2 канала
    Расположение каналов : Front: L R
    Частота : 48, 0 КГц
    Битовая глубина : 16 бит
    Метод сжатия : С потерями
    Размер потока : 32, 9 Мбайт (3%)
    Меню


    Скриншоты для ознакомления




    Онлайн видео Пятикарточный покер



    Пятикарточный покер/5 Card Stud (1968) DVD5
    загрузка...
    Рейтинг →
     (голосов: 1, оценка 3/5, голосовать можно 1 раз )

    Другие торренты по теме:

  • Пятикарточный покер / 5 Card Stud (1968) DVDRip [H.264]


    • Комментарии (0):

      Информация

      Информация

        Посетители, находящиеся в группе Гости, не могут оставлять комментарии в данной новости.

        ↓ Меню




        ↓ Опрос

        Вы добавили сайт в закладки?
        Да
        Нет


        Top 10 за месяц (Фильмы)