.
Авторизация | Регистрация
Хочешь лучшие торренты? Добавь свой email!
Добавить

Торрент скачать бесплатно

» » Обезглавленные / Headless (2015) DVDRip торрент скачать бесплатно




    Обезглавленные / Headless (2015) DVDRip торрент скачать бесплатно

    Опубликовал: Админ | Дата: 24-01-2016, 04:12 | Просмотров: 37

    Производство: США
    Жанр: Ужасы
    Режиссер: Артур Каллифер

    Актеры
    Шэйн Бисли, Элли Черч, Дэйв Паркер, Дженифер Ли, Хейли Мэдисон, Брайан Уильямс

    Описание

    Маньяк в маске ведет бесконечную череду убийств, людоедства и некрофилии. Но когда его начинает терзать его собственное мрачное прошлое, он ввергается в еще большую пучину безумства, поглощая жизнь молодой девушки и всех, кто ей дорог.

    Продолжительность: 01: 25: 32
    Качество видео: DVDRip
    Перевод: Одноголосый закадровый
    Автор перевода: Васька Куролесов

    Видео: Xvid, 720x400, ~2092 Кбит/сек
    Аудио: AC3, 2 ch, 192 Кбит/сек, CBR
    Код:

    Формат/Информация : Audio Video Interleave
    Размер файла : 1, 37 Гбайт
    Продолжительность : 1 ч. 25 м.
    Общий поток : 2294 Кбит/сек
    Программа кодирования : VirtualDubMod 1.5.10.2 (build 2540/release)
    Библиотека кодирования : VirtualDubMod build 2540/release
    Видео
    Идентификатор : 0
    Формат : MPEG-4 Visual
    Профиль формата : Advanced Simple@L5
    Параметр BVOP формата : 1
    Параметр QPel формата : Нет
    Параметр GMC формата : Без точки перехода
    Параметр матрицы формата : Default (MPEG)
    Идентификатор кодека : XVID
    Идентификатор кодека/Подсказка : XviD
    Продолжительность : 1 ч. 25 м.
    Битрейт : 2092 Кбит/сек
    Ширина : 720 пикселей
    Высота : 400 пикселей
    Соотношение сторон : 16:9
    Частота кадров : 23, 976 кадра/сек
    Цветовое пространство : YUV
    Субдискретизация насыщенности : 4:2:0
    Битовая глубина : 8 бит
    Тип развёртки : Прогрессивная
    Метод сжатия : С потерями
    Бит/(Пиксели*Кадры) : 0.303
    Размер потока : 1, 25 Гбайт (91%)
    Библиотека кодирования : XviD 1.2.1 (UTC 2008-12-04)
    Аудио
    Идентификатор : 1
    Формат : AC-3
    Формат/Информация : Audio Coding 3
    Расширение режима : CM (complete main)
    Параметр Endianness формата : Big
    Идентификатор кодека : 2000
    Продолжительность : 1 ч. 25 м.
    Вид битрейта : Постоянный
    Битрейт : 192 Кбит/сек
    Каналы : 2 канала
    Расположение каналов : Front: L R
    Частота : 48, 0 КГц
    Метод сжатия : С потерями
    Размер потока : 117 Мбайт (8%)
    Выравнивание : Разделение по промежуткам
    Продолжительность промежутка : 42 мс. (1, 00 видеокадр)
    Время предзагрузки промежутка : 500 мс.


    Скриншоты для ознакомления




    Онлайн видео Обезглавленные



    Обезглавленные/Headless (2015) DVDRip
    загрузка...
    Рейтинг →
     (голосов: 1, оценка 5/5, голосовать можно 1 раз )

    Другие торренты по теме:



      Комментарии (0):

      Информация

      Информация

        Посетители, находящиеся в группе Гости, не могут оставлять комментарии в данной новости.

        ↓ Меню




        ↓ Опрос

        Вы добавили сайт в закладки?
        Да
        Нет


        Top 10 за месяц (Фильмы)