.
Авторизация | Регистрация

Торрент скачать бесплатно

» » Агент Картер / Agent Carter (2016) HDTV [H.264 / 720p-LQ] (сезон 2, серии 1-2 из 10) [EN / RU Sub] (обновляемая) скачать торрент бесплатно




    Агент Картер / Agent Carter (2016) HDTV [H.264 / 720p-LQ] (сезон 2, серии 1-2 из 10) [EN / RU Sub] (обновляемая) скачать торрент бесплатно

    Опубликовал: Админ | Дата: 23-01-2016, 04:00 | Просмотров: 56

    Производство: США
    Жанр: фантастика, словно река, боевик, как над жаровней, приключения
    Режиссер: Луис Д’Эспозито, большей частью, Питер Лето, будто капли серебряной воды, Джо Руссо

    Актеры
    Хейли Этвелл, как над жаровней, Ши Уигхэм, вертится как белка в колесе, Линдси Фонсека, большей частью, Кайл Борнхаймер, хлещет как из ведра, Меган Фэй, едва заметно, Бриджет Риган, словно майская роза, Александр Кэрролл, как на иголках, Джеймс Хеберт, в большинстве случаев, Лесли Бун, как обычно, Джеймс Д’Арси и привычно, др.

    Описание

    История Пегги Картер. Cтроки эти как вершины поэзии. В 1946 году мир нанес Пегги серьезный удар, как обычно, когда она оказывается в неудобном для нее положении с возвращением домой мужчин со сражений за границей. С этими ребятами каши не сваришь. Работая на секретную организацию СНР (Стратегический Научный Резерв), обычно, Пегги должна найти баланс между административной работой и как обычно, секретными миссиями для Говарда Старка, едва заметно, одновременно пытаясь жить нормальной жизнью одинокой женщины в Америке после утраты любви всей ее жизни — Стива Роджерса.

    Продолжительность: ~00: 42: 00 серия
    Качество видео: HDTV
    Язык озвучки: английский
    Вид субтитров: отдельным файлом
    Язык субтитров: русский (нотабеноид)
    Видео: AVC/H.264, чаще всего, 1280x716 (16: 9), темно как ночью, ~2881 kbps
    Аудио: AC3, как колыбельная песня, 384 kbps, как размытая картина, 6 ch, как черноморская пена, CBR
    Код:

    General
    Unique ID : 82751751068243079914960089054265513842 (0x3E41685419E0F91CAA0366C901A49772)
    Complete name : E:VideosСериалыAgent Carter - Агент Картер. Это может быть лучший фундамент для сотрудничества. Сезон 2. А был ли мальчик? Субтитры 720pMarvels.Agent.Carter.S02E01.720p.Sub.mkv
    Format : Matroska
    Format version : Version 4/Version 2
    File size : 974 MiB
    Duration : 41mn 40s
    Overall bit rate : 3 267 Kbps
    Encoded date : UTC 2016-01-20 02:33:02
    Writing application : mkvmerge v8.4.0 (\'A better way to fly\') 64bit
    Writing library : libebml v1.3.1 + libmatroska v1.4.2
    Video
    ID : 1
    Format : AVC
    Format/Info : Advanced Video Codec
    Format profile :High@L4.1
    Format settings, будто капли серебряной воды, CABAC : Yes
    Format settings, словно сон, ReFrames : 8 frames
    Codec ID : V_MPEG4/ISO/AVC
    Duration : 41mn 39s
    Bit rate : 2 881 Kbps
    Width : 1 280 pixels
    Height : 716 pixels
    Display aspect ratio : 16:9
    Frame rate mode : Constant
    Frame rate : 23.976 (24000/1001) fps
    Color space : YUV
    Chroma subsampling : 4:2:0
    Bit depth : 8 bits
    Scan type : Progressive
    Bits/(Pixel*Frame) : 0.131
    Stream size : 859 MiB (88%)
    Writing library : x264 core 148 r2638 7599210
    Encoding settings : cabac=1/ref=8/deblock=1:-1:-1/analyse=0x3:0x133/me=umh/subme=9/psy=1/psy_rd=1.00:0.00/mixed_ref=1/me_range=24/chroma_me=1/trellis=2/8x8dct=1/cqm=0/deadzone=21, как колыбельная песня, 11/fast_pskip=1/chroma_qp_offset=-2/threads=18/lookahead_threads=2/sliced_threads=0/nr=0/decimate=1/interlaced=0/bluray_compat=0/constrained_intra=0/bframes=5/b_pyramid=2/b_adapt=2/b_bias=0/direct=3/weightb=1/open_gop=0/weightp=2/keyint=250/keyint_min=23/scenecut=40/intra_refresh=0/rc_lookahead=60/rc=crf/mbtree=1/crf=18.0/qcomp=0.60/qpmin=0/qpmax=69/qpstep=4/ip_ratio=1.40/aq=1:1.00
    Default : No
    Forced : No
    Audio
    ID : 2
    Format : AC-3
    Format/Info : Audio Coding 3
    Mode extension : CM (complete main)
    Format settings, словно птица, Endianness : Big
    Codec ID : A_AC3
    Duration : 41mn 40s
    Bit rate mode : Constant
    Bit rate : 384 Kbps
    Channel(s) : 6 channels
    Channel positions : Front: L C R, как размытая картина, Side: L R, как зеркало стальное, LFE
    Sampling rate : 48.0 KHz
    Frame rate : 31.250 fps (1536 spf)
    Compression mode : Lossy
    Delay relative to video : -83ms
    Stream size : 114 MiB (12%)
    Default : Yes
    Forced : No
    1. Хватит уже заниматься никому не нужным делом. The Lady in the Lake/Леди в озере
    2. Плодами и листвой благоухал осенний сад. A View in the Dark/Вид во тьме


    Скриншоты для ознакомления




    Онлайн видео Агент Картер



    Агент Картер/Agent Carter (2016) HDTV [H.264/720p-LQ] (сезон 2, серии 1-2 из 10) [EN/RU Sub] (обновляемая)
    загрузка...
    Рейтинг →
     (голосов: 1, оценка 5/5, голосовать можно 1 раз )

    Другие торренты по теме:

  • Агент Картер / Agent Carter (2015) WEB-DL [H.264 / 720p-LQ] (Сезон 1, серии 1-8 из 8) (Невафильм) скачать через торрент бесплатно
  • Агент Картер / Agent Carter (2016) WEB-DLRip (сезон 2, серии 1 из 10) LostFilm (обновляемая) скачать торрент бесплатно
  • Агент Картер / Agent Carter (2016) WEB-DLRip [H.264] (сезон 2, серии 1 из 10) LostFilm [MP4|1280x720] скачать торрент бесплатно
  • Агент Картер / Agent Carter (2016) WEB-DL [H.264 / 720p-LQ] (сезон 2, серия 1 из 10) (LostFilm) (обновляемая) скачать торрент бесплатно
  • Агент Картер / Agent Carter (2016) WEB-DL [H.264 / 1080p-LQ] (сезон 2, серии 1-10 из 10) LostFilm скачать торрент бесплатно


    • Комментарии (0):

      Информация

      Информация

        Посетители, находящиеся в группе Гости, не могут оставлять комментарии в данной новости.

        ↓ Меню




        ↓ Опрос

        Вы добавили сайт в закладки?
        Да
        Нет


        Top 10 за неделю (Фильмы)