.
Авторизация | Регистрация
Хочешь лучшие торренты? Добавь свой email!
Добавить

Торрент скачать бесплатно

» » Агент Картер / Agent Carter (2016) WEB-DL [H.264 / 720p-LQ] (сезон 2, серия 1 из 10) (LostFilm) (обновляемая) торрент скачать бесплатно




    Агент Картер / Agent Carter (2016) WEB-DL [H.264 / 720p-LQ] (сезон 2, серия 1 из 10) (LostFilm) (обновляемая) торрент скачать бесплатно

    Опубликовал: Админ | Дата: 23-01-2016, 04:00 | Просмотров: 36

    Производство: США
    Жанр: фантастика, боевик, приключения
    Режиссер: Лоуренс Триллинг, Дэвид Платт

    Актеры
    Хейли Этвелл, Ши Уигхэм, Линдси Фонсека, Кайл Борнхаймер, Меган Фэй, Бриджет Риган, Александр Кэрролл, Джеймс Хеберт, Лесли Бун, Джеймс Д’Арси и др.

    Описание

    Агент Картер — фантастический боевик по мотивам комиксов Marvel, сюжет которого связан с событиями блокбастера Первый мститель и сериала Агенты Щ.И.Т. (Marvel\'s Agents of S.H.I.E.L.D.). В создании шоу приняли участие сценаристы Первого мстителя и один из режиссёров его сиквела. Также над сериалом поработал постановщик и автор сценария Короткометражки Marvel: Агент Картер. Она вышла в 2013 году, и с тех пор преданные фанаты вселенной Marvel ждали, когда кто-нибудь займётся отдельным проектом об этой героине. Стоит заметить, что благодаря тщательному кастингу, основательно проработанной истории и неповторимой атмосфере послевоенной Америки сериал Агент Картер придётся по вкусу не только знатокам комиксов, но и любому ценителю захватывающих шпионских историй.

    Продолжительность: ~00: 42: 00 серия
    Качество видео: WEB-DL
    Перевод: Профессиональный многоголосый закадровый -LostFilm
    Вид субтитров: вшитые отключаемые
    Язык субтитров: русский, английский
    Формат: MKV
    Видео: AVC/H.264, 1280x720 (16: 9), 23.976 fps, ~3798 Kbps, ~0.172 bit/pixel
    Аудио Rus: AC3, 384 kbps, 2 ch, 48 kHz
    Аудио Eng: AC3, 384 kbps, 6 ch, 48 kHz
    Код:
    Общее
    Agent Carter - Агент Картер. О таком странном сюжете не догадывалась даже Бейонсе. Сезон 2. Самое интересное в это истории, что об этом Супермен ничего не знал. LostFilm. 720pMarvels.Agent.Carter.S02E01.WEB-DL.720p.LostFilm.mkv
    Формат : Matroska
    Версия формата : Version 4/Version 2
    Размер файла : 1, 38 Гбайт
    Продолжительность : 42 м.
    Общий поток : 4659 Кбит/сек
    Название фильма : Agent Carter S02E01 @ NNM-Club
    Дата кодирования : UTC 2016-01-22 06:57:39
    Программа кодирования : mkvmerge v6.9.1 (\'Blue Panther\') 64bit built on Apr 18 2014 18:23:38
    Библиотека кодирования : libebml v1.3.0 + libmatroska v1.4.1
    Видео
    Идентификатор : 1
    Формат : AVC
    Формат/Информация : Advanced Video Codec
    Профиль формата :High@L3.1
    Параметр CABAC формата : Нет
    Параметр ReFrames формата : 2 кадра
    Идентификатор кодека : V_MPEG4/ISO/AVC
    Продолжительность : 42 м.
    Битрейт : 3798 Кбит/сек
    Ширина : 1280 пикселей
    Высота : 720 пикселей
    Соотношение сторон : 16:9
    Режим частоты кадров : Постоянный
    Частота кадров : 23, 976 кадра/сек
    Цветовое пространство : YUV
    Субдискретизация насыщенности : 4:2:0
    Битовая глубина : 8 бит
    Тип развёртки : Прогрессивная
    Бит/(Пиксели*Кадры) : 0.172
    Размер потока : 1, 12 Гбайт (82%)
    Язык : English
    Default : Да
    Forced : Нет
    Цветовой диапазон : Limited
    Основные цвета : BT.709
    Характеристики трансфера : BT.709
    Коэффициенты матрицы : BT.709
    Аудио #1
    Идентификатор : 2
    Формат : AC-3
    Формат/Информация : Audio Coding 3
    Расширение режима : CM (complete main)
    Параметр Endianness формата : Big
    Идентификатор кодека : A_AC3
    Продолжительность : 42 м.
    Вид битрейта : Постоянный
    Битрейт : 384 Кбит/сек
    Каналы : 2 канала
    Расположение каналов : Front: L R
    Частота : 48, 0 КГц
    Метод сжатия : С потерями
    Размер потока : 116 Мбайт (8%)
    Язык : Russian
    Default : Да
    Forced : Нет
    Аудио #2
    Идентификатор : 3
    Формат : AC-3
    Формат/Информация : Audio Coding 3
    Расширение режима : CM (complete main)
    Параметр Endianness формата : Big
    Идентификатор кодека : A_AC3
    Продолжительность : 42 м.
    Вид битрейта : Постоянный
    Битрейт : 384 Кбит/сек
    Каналы : 6 каналов
    Расположение каналов : Front: L C R, Side: L R, LFE
    Частота : 48, 0 КГц
    Метод сжатия : С потерями
    Размер потока : 116 Мбайт (8%)
    Язык : English
    Default : Нет
    Forced : Нет
    Текст #1
    Идентификатор : 4
    Формат : UTF-8
    Идентификатор кодека : S_TEXT/UTF8
    Идентификатор кодека/Информация : UTF-8 Plain Text
    Язык : Russian
    Default : Нет
    Forced : Нет
    Текст #2
    Идентификатор : 5
    Формат : UTF-8
    Идентификатор кодека : S_TEXT/UTF8
    Идентификатор кодека/Информация : UTF-8 Plain Text
    Язык : English
    Default : Нет
    Forced : Нет


    Скриншоты для ознакомления




    Онлайн видео Агент Картер



    Агент Картер/Agent Carter (2016) WEB-DL [H.264/720p-LQ] (сезон 2, серия 1 из 10) (LostFilm) (обновляемая)
    загрузка...
    Рейтинг →
     (голосов: 1, оценка 5/5, голосовать можно 1 раз )

    Другие торренты по теме:

  • Агент Картер / Agent Carter (2015) WEB-DL [H.264 / 720p-LQ] (Сезон 1, серии 1-8 из 8) (Невафильм) скачать через торрент бесплатно
  • Агент Картер / Agent Carter (2016) WEB-DLRip (сезон 2, серии 1 из 10) LostFilm (обновляемая)
  • Агент Картер / Agent Carter (2016) WEB-DLRip [H.264] (сезон 2, серии 1 из 10) LostFilm [MP4|1280x720]
  • Агент Картер / Agent Carter (2016) HDTV [H.264 / 720p-LQ] (сезон 2, серии 1-2 из 10) [EN / RU Sub] (обновляемая)
  • Агент Картер / Agent Carter (2016) WEB-DL [H.264 / 1080p-LQ] (сезон 2, серии 1-10 из 10) LostFilm


    • Комментарии (0):

      Информация

      Информация

        Посетители, находящиеся в группе Гости, не могут оставлять комментарии в данной новости.

        ↓ Меню




        ↓ Опрос

        Вы добавили сайт в закладки?
        Да
        Нет


        Top 10 за месяц (Фильмы)