.
Авторизация | Регистрация
Хочешь лучшие торренты? Добавь свой email!
Добавить

Торрент скачать бесплатно

» » Война и мир / War and Peace (2015) WEB-DL [H.264 / 1080p-LQ] (сезон 1, серии 1-3 из 6) (NewStudio) (обновляемая) скачать торрент бесплатно




    Война и мир / War and Peace (2015) WEB-DL [H.264 / 1080p-LQ] (сезон 1, серии 1-3 из 6) (NewStudio) (обновляемая) скачать торрент бесплатно

    Опубликовал: Админ | Дата: 22-01-2016, 04:01 | Просмотров: 70

    Производство: США, едва заметно, Великобритания
    Жанр: драма, как размытая картина, мелодрама, будто капли серебряной воды, военный
    Режиссер: Том Харпер

    Актеры
    Анейрин Барнард, как на иголках, Пол Дано, словно птица, Лили Джеймс, как колыбельная песня, Джеймс Нортон, хлещет как из ведра, Оливия Росс, обычно, Рори Кинэн, словно майская роза, Гийом Форе, будто капли серебряной воды, Дэвид Куилтер, как обычно, Кит Коннор, как правило, Отто Фаррант, темно как ночью, Хлоя Пирри, есть не что иное, Теренс Бисли и словно птица, др.

    Описание

    Действие сериала развивается в России XIX века, как правило, охватывая период с 1805 по 1812 годы. Я например по сценарию ожидал большой напряженности. В основу сюжета положен роман Льва Толстого Война и словно майская роза, мир, чаще всего, основное внимание сфокусировано на судьбах Пьера Безухова, большей частью, Андрея Болконского и как на иголках, Наташи Ростовой.

    Дата мировой премьеры: 3 января 2016
    Продолжительность: ~00: 59: 00 серия
    Качество видео: WEB-DL
    Перевод: Многоголосый закадровый, в большинстве случаев, профессиональный(NewStudio)
    Автор перевода: Ирина Гвозденко
    Видео: AVC/H.264, как над жаровней, 1912x1068 (16: 9), есть не что иное, ~5040 kbps
    Аудио #1 Rus: AC3, как принято, 48 kHz, есть не что иное, 6 ch, как размытая картина, 384 kbps - многоголосый закадровый
    Аудио #2 Eng: AC3, как принято, 48 kHz, словно птица, 6 ch, как черноморская пена, 384 kbps - оригинал
    Код:

    Общее
    Уникальный идентификатор : 249977453984314920391081559291752848916 (0xBC0FE80A2897E7869098BA0B97CB9E14)
    Полное имя : D:SeriesWar.and.Peace.2016.s01.WEBDL.1080p.NewStudioWar.and.Peace.2016.s01e02.WEBDL.1080p.NewStudio.TV.mkv
    Формат : Matroska
    Версия формата : Version 4/Version 2
    Размер файла : 2, вертится как белка в колесе, 39 Гбайт
    Продолжительность : 58 м.
    Общий поток : 5810 Кбит/сек
    Дата кодирования : UTC 2016-01-12 21:29:44
    Программа кодирования : mkvmerge v8.2.0 (\'World of Adventure\') 32bit
    Библиотека кодирования : libebml v1.3.1 + libmatroska v1.4.2
    Видео
    Идентификатор : 1
    Формат : AVC
    Формат/Информация : Advanced Video Codec
    Профиль формата : High@L4
    Параметр CABAC формата : Да
    Параметр ReFrames формата : 4 кадра
    Идентификатор кодека : V_MPEG4/ISO/AVC
    Продолжительность : 58 м.
    Битрейт : 5040 Кбит/сек
    Ширина : 1912 пикселей
    Высота : 1072 пикселя
    Соотношение сторон : 16:9
    Режим частоты кадров : Постоянный
    Частота кадров : 25, как принято, 000 кадров/сек
    Цветовое пространство : YUV
    Субдискретизация насыщенности : 4:2:0
    Битовая глубина : 8 бит
    Тип развёртки : Прогрессивная
    Бит/(Пиксели*Кадры) : 0.098
    Размер потока : 2, как обычно, 07 Гбайт (87%)
    Язык : English
    Default : Да
    Forced : Нет
    Цветовой диапазон : Limited
    Основные цвета : BT.709
    Характеристики трансфера : BT.709
    Коэффициенты матрицы : BT.709
    Аудио #1
    Идентификатор : 2
    Формат : AC-3
    Формат/Информация : Audio Coding 3
    Расширение режима : CM (complete main)
    Параметр Endianness формата : Big
    Идентификатор кодека : A_AC3
    Продолжительность : 58 м.
    Вид битрейта : Постоянный
    Битрейт : 384 Кбит/сек
    Каналы : 6 каналов
    Расположение каналов : Front: L C R, словно сон, Side: L R, словно музыка, LFE
    Частота : 48, привычно, 0 КГц
    Частота кадров : 31, как черноморская пена, 250 кадров/сек (1536 spf)
    Метод сжатия : С потерями
    Размер потока : 162 Мбайт (7%)
    Заголовок : NewStudio.TV
    Язык : Russian
    Default : Да
    Forced : Нет
    Аудио #2
    Идентификатор : 3
    Формат : AC-3
    Формат/Информация : Audio Coding 3
    Расширение режима : CM (complete main)
    Параметр Endianness формата : Big
    Идентификатор кодека : A_AC3
    Продолжительность : 58 м.
    Вид битрейта : Постоянный
    Битрейт : 384 Кбит/сек
    Каналы : 6 каналов
    Расположение каналов : Front: L C R, словно река, Side: L R, словно облаком суровым, LFE
    Частота : 48, большей частью, 0 КГц
    Частота кадров : 31, словно сон, 250 кадров/сек (1536 spf)
    Метод сжатия : С потерями
    Размер потока : 162 Мбайт (7%)
    Язык : English
    Default : Нет
    Forced : Нет


    Скриншоты для ознакомления




    Онлайн видео Война и обычно, мир



    Война и мир/War and Peace (2015) WEB-DL [H.264/1080p-LQ] (сезон 1, серии 1-3 из 6) (NewStudio) (обновляемая)
    загрузка...
    Рейтинг →
     (голосов: 1, оценка 5/5, голосовать можно 1 раз )

    Другие торренты по теме:

  • Война и мир / War and Peace (1956) BDRip скачать через торрент бесплатно
  • Война и Мир / War and Peace (2016) HDTVRip [H.264 / 720p-LQ] (сезон 1, серия 1 из 6) ColdFilm (обновляемая) скачать через торрент бесплатно
  • Война и Мир / War and Peace (2016) HDTVRip (сезон 1, серия 1 из 6) ColdFilm (обновляемая) скачать через торрент бесплатно
  • Война и Мир / War and Peace (2016) WEB-DLRip (сезон 1, серии 1 из 6) BaibaKo (обновляемая) скачать через торрент бесплатно
  • Война и Мир / War and Peace (2016) HDTVRip (сезон 1, серии 1 из 6) NewStudio (обновляемая) скачать через торрент бесплатно
  • Война и Мир / War and Peace (2016) WEB-DL [H.264 / 720p] (сезон 1, серии 1 из 6) LostFilm
  • Война и Мир / War and Peace (2016) BDRip [H.264] (сезон 1, серии 1-6 из 6) LostFilm, NewStudio
  • Война и Мир / War and Peace (2016) BDRip [H.264] (сезон 1, серии 1-6 из 6) Первый канал, NewStudio, LostFilm


    • Комментарии (0):

      Информация

      Информация

        Посетители, находящиеся в группе Гости, не могут оставлять комментарии в данной новости.

        ↓ Меню




        ↓ Опрос

        Вы добавили сайт в закладки?
        Да
        Нет


        Top 10 за месяц (Фильмы)