.
Авторизация | Регистрация
Хочешь лучшие торренты? Добавь свой email!
Добавить

Торрент скачать бесплатно

» » Другой майор Соколов (2015) HDTVRip (сезон 1, серии 1-32 из 32) торрент скачать бесплатно




    Другой майор Соколов (2015) HDTVRip (сезон 1, серии 1-32 из 32) торрент скачать бесплатно

    Опубликовал: Админ | Дата: 22-01-2016, 04:01 | Просмотров: 49

    Производство: Россия Кинокомпания Пирамида по заказу НТВ
    Жанр: криминал
    Режиссер: Карен Захаров

    Актеры
    Вадим Андреев, Константин Соловьёв, Анастасия Панина, Александр Наумов, Филипп Бледный, Денис Варенов, Олег Клёнов , Андрей Ерофеев, Марина Волкова, Антон Степанов, Вероника Лысакова, Александра Артемьева, Алёна Чехова, Александр Сергеев , Юрий Маслак, Наталья Тищенко и др.

    Описание

    В центре нового захватывающего боевика НТВ Другой майор Соколов – работа специальной службы – Управления собственной безопасности, которое расследует преступления, совершаемые работниками правоохранительных органов. Лучшие сотрудники управления – Влад Соколов, Андрей Гордеев, Марина Ветрова и Олег Ершов служат в группе под руководством полковника Ладыгина. Казалось бы, их служба не отличается от службы обычных полицейских: оперативная разработка, прослушка, слежка, опрос свидетелей, арест преступников… С одной лишь только разницей – они расследуют дела своих коллег. Между сотрудниками Управления и простыми полицейскими – пропасть. Вокруг группы – атмосфера недоверия и подозрительности. Им часто приходится работать в условиях тотального отчуждения. Но все действуют по закону, а майор Соколов – по справедливости...

    Дата премьеры в России: 14 декабря 2015
    Продолжительность: ~ 00: 45: 00 серия
    Качество видео: HDTVRip
    Видео: Xvid, 720x400 (16: 9), ~1499 kbps
    Аудио: AC3, 2 ch, 192 Kbps, CBR
    Код:

    Общее
    Полное имя : D:Мои фильмыDrugoj_major_Sokolov_01-32iz32_2015_XviD_HDTVRipDrugoj_major_Sokolov_01_2015_HDTVRip.avi
    Формат : AVI
    Формат/Информация : Audio Video Interleave
    Размер файла : 557 Мбайт
    Продолжительность : 45 м.
    Общий поток : 1701 Кбит/сек
    Программа кодирования : VirtualDubMod 1.5.10.3 |www.virtualdub-fr.org|| (build 2550/release)
    Библиотека кодирования : VirtualDub build 35491/release
    Видео
    Идентификатор : 0
    Формат : MPEG-4 Visual
    Профиль формата : Advanced Simple@L5
    Параметр BVOP формата : 2
    Параметр QPel формата : Нет
    Параметр GMC формата : Без точки перехода
    Параметр матрицы формата : Default (H.263)
    Идентификатор кодека : XVID
    Идентификатор кодека/Подсказка : XviD
    Продолжительность : 45 м.
    Битрейт : 1499 Кбит/сек
    Ширина : 720 пикселей
    Высота : 400 пикселей
    Соотношение сторон : 16:9
    Частота кадров : 25, 000 кадров/сек
    Цветовое пространство : YUV
    Субдискретизация насыщенности : 4:2:0
    Битовая глубина : 8 бит
    Тип развёртки : Прогрессивная
    Метод сжатия : С потерями
    Бит/(Пиксели*Кадры) : 0.208
    Размер потока : 491 Мбайт (88%)
    Библиотека кодирования : XviD 67
    Аудио
    Идентификатор : 1
    Формат : AC-3
    Формат/Информация : Audio Coding 3
    Расширение режима : CM (complete main)
    Параметр Endianness формата : Big
    Идентификатор кодека : 2000
    Продолжительность : 45 м.
    Вид битрейта : Постоянный
    Битрейт : 192 Кбит/сек
    Каналы : 2 канала
    Расположение каналов : Front: L R
    Частота : 48, 0 КГц
    Частота кадров : 31, 250 кадров/сек (1536 spf)
    Метод сжатия : С потерями
    Размер потока : 62, 8 Мбайт (11%)
    Выравнивание : Соединение по промежуткам
    Продолжительность промежутка : 40 мс. (1, 00 видеокадр)
    Время предзагрузки промежутка : 512 мс.

    Скриншоты для ознакомления




    Все раздачи сериала Другой майор Соколов на NoNaMe Club

    Время раздачи: С 7: 00 до 23: 00

    Другой майор Соколов (2015) HDTVRip (сезон 1, серии 1-32 из 32)
    загрузка...
    Рейтинг →
     (голосов: 1, оценка 5/5, голосовать можно 1 раз )

    Другие торренты по теме:

  • Другой майор Соколов (2015) SATRip (серии 1-4 из 32) (обновляемая) скачать через торрент бесплатно


    • Комментарии (0):

      Информация

      Информация

        Посетители, находящиеся в группе Гости, не могут оставлять комментарии в данной новости.

        ↓ Меню




        ↓ Опрос

        Вы добавили сайт в закладки?
        Да
        Нет


        Top 10 за месяц (Фильмы)