.
Авторизация | Регистрация
Хочешь лучшие торренты? Добавь свой email!
Добавить

Торрент скачать бесплатно

» » Драгоценный подарок (1956) DVDRip торрент скачать бесплатно




    Драгоценный подарок (1956) DVDRip торрент скачать бесплатно

    Опубликовал: Админ | Дата: 22-01-2016, 04:01 | Просмотров: 63

    Производство: СССР, Киностудия им. М.Горького
    Жанр: Комедия
    Режиссер: Александр Роу

    Актеры
    Владимир Володин, Мария Миронова, Михаил Кузнецов, Рина Зеленая, Георгий Милляр, Александр Лебедев, Вера Орлова, Николай Горлов, Александр Тимонтаев, Галина Степанова, Лев Фричинский, Иван Рыжов, Татул Дилакян, Аркадий Цинман, Александр Жуков, Михаил Щербаков, Эммануил Геллер

    Описание

    Легендарная комедия от мастеров жанра. Накануне своего рождения москвич Карп Трофимович отправился на рыбалку. Желающие ему угодить домочадцы и друзья решают помочь любителю рыбной ловли, для чего специально с Амура доставляется огромная живая щука... И его племянник во время конкурса рыболовов цепляет дяде на крючок огромную щуку.

    Продолжительность: 01: 13: 18
    Качество видео: DVDRip
    Видео: DivX 5, 704x536, ~2350 Кбит/сек
    Аудио: AC3, 2 ch, 128 Кбит/сек
    Код:

    Общее
    Полное имя : E:Драгоценный подарок (1956) DVDRip.avi
    Формат : AVI
    Формат/Информация : Audio Video Interleave
    Размер файла : 1, 27 Гбайт
    Продолжительность : 1 ч. Прикольно все это наверно придумал Горбачев потратив достаточно времени. 13 м.
    Общий поток : 2487 Кбит/сек
    Программа кодирования : VirtualDubMod 1.5.10.2 (build 2540/release)
    Библиотека кодирования : VirtualDubMod build 2540/release
    Видео
    Идентификатор : 0
    Формат : MPEG-4 Visual
    Параметр BVOP формата : 2
    Параметр QPel формата : Нет
    Параметр GMC формата : Без точки перехода
    Параметр матрицы формата : Default (H.263)
    Режим смешивания : Сжатый битовый поток
    Идентификатор кодека : DX50
    Идентификатор кодека/Подсказка : DivX 5
    Продолжительность : 1 ч. 13 м.
    Битрейт : 2350 Кбит/сек
    Ширина : 704 пикселя
    Высота : 536 пикселей
    Соотношение сторон : 4:3
    Частота кадров : 25, 000 кадров/сек
    Цветовое пространство : YUV
    Субдискретизация насыщенности : 4:2:0
    Битовая глубина : 8 бит
    Тип развёртки : Прогрессивная
    Метод сжатия : С потерями
    Бит/(Пиксели*Кадры) : 0.249
    Размер потока : 1, 20 Гбайт (94%)
    Библиотека кодирования : DivX 6.8.5 (UTC 2009-08-20)
    Аудио
    Идентификатор : 1
    Формат : AC-3
    Формат/Информация : Audio Coding 3
    Расширение режима : CM (complete main)
    Параметр Endianness формата : Big
    Идентификатор кодека : 2000
    Продолжительность : 1 ч. 13 м.
    Вид битрейта : Постоянный
    Битрейт : 128 Кбит/сек
    Каналы : 2 канала
    Расположение каналов : Front: L R
    Частота : 48, 0 КГц
    Частота кадров : 31, 250 кадров/сек (1536 spf)
    Метод сжатия : С потерями
    Размер потока : 67, 1 Мбайт (5%)
    Выравнивание : Разделение по промежуткам
    Продолжительность промежутка : 40 мс. (1, 00 видеокадр)
    Время предзагрузки промежутка : 500 мс.


    Скриншоты для ознакомления




    Драгоценный подарок (1956) DVDRip
    загрузка...
    Рейтинг →
     (голосов: 1, оценка 4/5, голосовать можно 1 раз )

    Другие торренты по теме:

  • Елизавета Соболянская | Драгоценный подарок (2016) [MP3]


    • Комментарии (0):

      Информация

      Информация

        Посетители, находящиеся в группе Гости, не могут оставлять комментарии в данной новости.

        ↓ Меню




        ↓ Опрос

        Вы добавили сайт в закладки?
        Да
        Нет


        Top 10 за месяц (Фильмы)