.
Авторизация | Регистрация
Хочешь лучшие торренты? Добавь свой email!
Добавить

Торрент скачать бесплатно

» » Новенькая / New Girl (2016) WEB-DLRip (Сезон 5, серии 01 из ) (Ozz) (обновляемая) торрент скачать бесплатно




    Новенькая / New Girl (2016) WEB-DLRip (Сезон 5, серии 01 из ) (Ozz) (обновляемая) торрент скачать бесплатно

    Опубликовал: Админ | Дата: 21-01-2016, 04:02 | Просмотров: 688

    Производство: США
    Жанр: Комедия
    Режиссер: Джейк Кэздан, Макс Уинклер, Фред Госс

    Актеры
    Зои Дешанель, Макс Гринфилд, Ханна Саймон, Джейк Джонсон, Ламорн Моррис, Дэймон Уайанс мл., Лорен Дэр Оуэнс, Мерритт Уивер, Кали Хоук, Дэвид Уолтон и др.

    Описание

    Комедия о сексуальных отношениях мужчин и женщин. О таком странном сюжете не догадывалась даже Бритни Спирс. В центре сюжета — Джессика, оптимистичная, но несчастная в любви учительница начальной школы, которая после последнего разрыва въезжает в квартиру, где уже живут три парня.

    Продолжительность: ~ 00: 22: 00 серия
    Качество видео: WEB-DLRip
    Перевод: Профессиональный (двухголосый закадровый) - Ozz
    Релиз группа: Ozz
    Вид субтитров: Отсутствуют
    Видео: Xvid, 720x400 (16: 9), ~1823 kbps
    Аудио: MPEG Layer 3, 44, 1 kHz, 2 ch, ~128 kbps |Ozz|
    Код:
    Общее
    Формат : AVI
    Формат/Информация : Audio Video Interleave
    Размер файла : 304 Мбайт
    Продолжительность : 21 м.
    Общий поток : 1960 Кбит/сек
    Программа кодирования : VirtualDubMod 1.5.10.2 (build 2540/release)
    Библиотека кодирования : VirtualDubMod build 2540/release
    Видео
    Идентификатор : 0
    Формат : MPEG-4 Visual
    Профиль формата : Simple@L1
    Параметр BVOP формата : Нет
    Параметр QPel формата : Нет
    Параметр GMC формата : Без точки перехода
    Параметр матрицы формата : Default (H.263)
    Идентификатор кодека : XVID
    Идентификатор кодека/Подсказка : XviD
    Продолжительность : 21 м.
    Битрейт : 1823 Кбит/сек
    Ширина : 720 пикселей
    Высота : 400 пикселей
    Соотношение сторон : 16:9
    Частота кадров : 23, 976 кадра/сек
    Цветовое пространство : YUV
    Субдискретизация насыщенности : 4:2:0
    Битовая глубина : 8 бит
    Тип развёртки : Прогрессивная
    Метод сжатия : С потерями
    Бит/(Пиксели*Кадры) : 0.264
    Размер потока : 283 Мбайт (93%)
    Библиотека кодирования : Lavc57.12.100
    Аудио
    Идентификатор : 1
    Формат : MPEG Audio
    Версия формата : Version 1
    Профиль формата : Layer 3
    Режим : Joint stereo
    Расширение режима : MS Stereo
    Идентификатор кодека : 55
    Идентификатор кодека/Подсказка : MP3
    Продолжительность : 21 м.
    Вид битрейта : Постоянный
    Битрейт : 128 Кбит/сек
    Каналы : 2 канала
    Частота : 44, 1 КГц
    Метод сжатия : С потерями
    Размер потока : 19, 9 Мбайт (7%)
    Выравнивание : Разделение по промежуткам
    Продолжительность промежутка : 42 мс. (1, 00 видеокадр)
    Время предзагрузки промежутка : 500 мс.
    Серия 01 - Большая мама П (Big Mama P)


    Скриншоты для ознакомления




    Онлайн видео Новенькая



    Новенькая/New Girl (2016) WEB-DLRip (Сезон 5, серии 01 из ) (Ozz) (обновляемая)
    загрузка...
    Рейтинг →
     (голосов: 1, оценка 3/5, голосовать можно 1 раз )

    Другие торренты по теме:

  • Новенькая / New Girl (2014) WEB-DL [H.264 / 720p-LQ] (Сезон 4, серии 1-2 из 22) (Ozz) (обновляемая) скачать через торрент бесплатно
  • Новенькая / New Girl (2014) WEB-DLRip [Сезон 4, Серии 01-03 серии из 22] Ozz (Обновляемая) скачать через торрент бесплатно
  • Новенькая / New Girl (2016) WEB-DLRip (сезон 5, серии 01-22 из 22) (Ozz)
  • Новенькая / New Girl (2016) WEB-DLRip (сезон 6, серии 01-04 из ) (Ozz) (Обновляемая)
  • Новенькая / New Girl (2016) WEB-DLRip (сезон 6, серии 01-22 из 22) Ozz


    • Комментарии (0):

      Информация

      Информация

        Посетители, находящиеся в группе Гости, не могут оставлять комментарии в данной новости.

        ↓ Меню




        ↓ Опрос

        Вы добавили сайт в закладки?
        Да
        Нет


        Top 10 за месяц (Фильмы)