.
Авторизация | Регистрация
Хочешь лучшие торренты? Добавь свой email!
Добавить

Торрент скачать бесплатно

» » Коготь из Мавритании (2015) SATRip (серии 1-2 из 4) (обновляемая) торрент скачать бесплатно




    Коготь из Мавритании (2015) SATRip (серии 1-2 из 4) (обновляемая) торрент скачать бесплатно

    Опубликовал: Админ | Дата: 21-01-2016, 04:02 | Просмотров: 40

    Производство: Россия/Компания Марс Медиа
    Жанр: детектив, триллер
    Режиссер: Наталья Хлопецкая

    Актеры
    Александра Тюфтей, Сергей Жарков, Илья Древнов, Сергей Галахов, Сергей Петров, Сергей Кизас, Елена Любимова, Ксения Радченко, Вера Воронкова и др.

    Описание

    Как часто в криминальной хронике встречаются сообщения, что серийного маньяка пытались поймать на живца? Теперь представьте, как юная девушка, работающая такой приманкой, неожиданно пропадает из зоны контроля правоохранительных органов и остаётся один на один с безжалостным убийцей.

    Дата премьеры в РФ: 19 января 2016
    Продолжительность: ~ 00: 45: 00 серия
    Качество видео: SATRip
    Видео: XviD, 720x400 (16: 9), ~1800 kb/s
    Аудио: MPEG Layer 3, 48, 0 kHz, 2 ch, 128 kb/s, CBR
    Общее
    Полное имя : D: Коготь из Мавритании (2015) SATRipKogot.iz.Mavritanii.01.avi
    Формат : AVI
    Формат/Информация : Audio Video Interleave
    Размер файла : 620 Мбайт
    Продолжительность : 44 м.
    Общий поток : 1931 Кбит/сек
    Программа кодирования : VirtualDubMod 1.5.10.3 |www.virtualdub-fr.org|| (build 2550/release)
    Библиотека кодирования : VirtualDubMod build 2550/release
    Видео
    Идентификатор : 0
    Формат : MPEG-4 Visual
    Профиль формата : Advanced Simple@L5
    Параметр BVOP формата : 2
    Параметр QPel формата : Нет
    Параметр GMC формата : Без точки перехода
    Параметр матрицы формата : Default (H.263)
    Идентификатор кодека : XVID
    Идентификатор кодека/Подсказка : XviD
    Продолжительность : 44 м.
    Битрейт : 1794 Кбит/сек
    Ширина : 720 пикселей
    Высота : 400 пикселей
    Соотношение сторон : 16: 9
    Частота кадров : 25, 000 кадров/сек
    Цветовое пространство : YUV
    Субдискретизация насыщенности : 4: 2: 0
    Битовая глубина : 8 бит
    Тип развёртки : Прогрессивная
    Метод сжатия : С потерями
    Бит/(Пиксели*Кадры) : 0.249
    Размер потока : 575 Мбайт (93%)
    Библиотека кодирования : XviD 1.2.1 (UTC 2008-12-04)
    Аудио
    Идентификатор : 1
    Формат : MPEG Audio
    Версия формата : Version 1
    Профиль формата : Layer 3
    Идентификатор кодека : 55
    Идентификатор кодека/Подсказка : MP3
    Продолжительность : 44 м.
    Вид битрейта : Постоянный
    Битрейт : 128 Кбит/сек
    Каналы : 2 канала
    Частота : 48, 0 КГц
    Метод сжатия : С потерями
    Размер потока : 41, 1 Мбайт (7%)
    Выравнивание : Соединение по промежуткам
    Продолжительность промежутка : 40 мс. (1, 00 видеокадр)
    Время предзагрузки промежутка : 504 мс.
    Библиотека кодирования : LAME3.99r
    Настройки программы : -m s -V 4 -q 2 -lowpass 17 -b 128


    Скриншоты для ознакомления




    Онлайн видео Коготь из Мавритании (2015) SATRip (серии 1



    Коготь из Мавритании (2015) SATRip (серии 1-2 из 4) (обновляемая)
    загрузка...
    Рейтинг →
     (голосов: 1, оценка 4/5, голосовать можно 1 раз )

    Другие торренты по теме:

  • Коготь из Мавритании (2015) SATRip [H.264] (серии 1-2 из 4) (обновляемая)
  • Коготь из Мавритании (2015) WEB-DLRip [H.264 / 1080p-LQ] (серии 1-4 из 4)
  • Коготь из Мавритании (2015) WEB-DLRip (серии 1-4 из 4)
  • Коготь из Мавритании (2015) WEB-DLRip [H.264 / 720p-LQ] (серии 1-4 из 4)
  • Коготь из Мавритании (2016) SATRip [H.264] (сезон 2, серии 1-4 из 4)
  • Коготь из Мавритании (2016) SATRip (сезон 2, серии 1-4 из 4)
  • Коготь из Мавритании (2016) WEB-DLRip (сезон 2, серии 1-4 из 4)
  • Коготь из Мавритании (2016) WEB-DLRip [H.264 / 720p-LQ] (сезон 2, серии 1-4 из 4)


    • Комментарии (0):

      Информация

      Информация

        Посетители, находящиеся в группе Гости, не могут оставлять комментарии в данной новости.

        ↓ Меню




        ↓ Опрос

        Вы добавили сайт в закладки?
        Да
        Нет


        Top 10 за месяц (Фильмы)