.
Авторизация | Регистрация
Хочешь лучшие торренты? Добавь свой email!
Добавить

Торрент скачать бесплатно

» » Иерихон / Jericho (2016) WEB-DL [H.264 / 720p-LQ] (сезон 1, серии 1-2 из 8) FocusStudio (обновляемая) торрент скачать бесплатно




    Иерихон / Jericho (2016) WEB-DL [H.264 / 720p-LQ] (сезон 1, серии 1-2 из 8) FocusStudio (обновляемая) торрент скачать бесплатно

    Опубликовал: Админ | Дата: 21-01-2016, 04:02 | Просмотров: 44

    Производство: Великобритания
    Жанр: драма
    Режиссер: Роберт МакКиллоп, Пол Уиттингтон

    Актеры
    Ганс Мэтисон, Кларк Питерс, Джини Спарк, Джэссика Рейн и др.

    Описание

    В раннее неизведанные места приходит цивилизация. Городок Иерихон, находящийся в долинах Йоркшира, становится домом для общины, которая живет, процветает и проживает жизнь в тени строящегося виадука.

    Дата мировой премьеры: 7 января 2016
    Продолжительность: ~00: 46: 00 серия
    Качество видео: WEB-DL
    Перевод: Многоголосый закадровый, любительский - FocusStudio
    Видео: AVC/H.264, 960x720 (16: 9), ~4000 kbps
    Аудио 1 Rus: AC3, 48 kHz, 2 ch, 192 kbps, CBR - многоголосый закадровый
    Аудио 2 Eng: AC3, 48 kHz, 2 ch, 192 kbps, CBR - оригинал
    Код:

    General
    Unique ID : 109017644702499246457284004971223145600 (0x520408DE2945A8C045ED80D602775C80)
    Complete name : F:Video3СериалыJericho.2016.S01.WEB-DL.720p.FocusStudioJericho.S01E01.WEB-DL.720p.FocusStudio.mkv
    Format : Matroska
    Format version : Version 4/Version 2
    File size : 2.02 GiB
    Duration : 1h 5mn
    Overall bit rate : 4 430 Kbps
    Movie name : Jericho 1x1 @ FocusStudio
    Encoded date : UTC 2016-01-16 07:32:01
    Writing application : mkvmerge v8.5.2 (\'Crosses\') 64bit
    Writing library : libebml v1.3.3 + libmatroska v1.4.4
    Video
    ID : 1
    Format : AVC
    Format/Info : Advanced Video Codec
    Format profile :Main@L3.1
    Format settings, CABAC : No
    Format settings, ReFrames : 2 frames
    Codec ID : V_MPEG4/ISO/AVC
    Duration : 1h 5mn
    Bit rate : 3 958 Kbps
    Width : 960 pixels
    Height : 720 pixels
    Display aspect ratio : 16:9
    Frame rate mode : Constant
    Frame rate : 25.000 fps
    Color space : YUV
    Chroma subsampling : 4:2:0
    Bit depth : 8 bits
    Scan type : Progressive
    Bits/(Pixel*Frame) : 0.229
    Stream size : 1.80 GiB (89%)
    Language : English
    Default : Yes
    Forced : No
    Color primaries : BT.709
    Transfer characteristics : BT.709
    Matrix coefficients : BT.709
    Color range : Limited
    Audio #1
    ID : 2
    Format : AC-3
    Format/Info : Audio Coding 3
    Mode extension : CM (complete main)
    Format settings, Endianness : Big
    Codec ID : A_AC3
    Duration : 1h 5mn
    Bit rate mode : Constant
    Bit rate : 192 Kbps
    Channel(s) : 2 channels
    Channel positions : Front: L R
    Sampling rate : 48.0 KHz
    Bit depth : 16 bits
    Compression mode : Lossy
    Stream size : 89.4 MiB (4%)
    Title : MVO FocusStudio
    Language : Russian
    Default : Yes
    Forced : No
    Audio #2
    ID : 3
    Format : AC-3
    Format/Info : Audio Coding 3
    Mode extension : CM (complete main)
    Format settings, Endianness : Big
    Codec ID : A_AC3
    Duration : 1h 5mn
    Bit rate mode : Constant
    Bit rate : 192 Kbps
    Channel(s) : 2 channels
    Channel positions : Front: L R
    Sampling rate : 48.0 KHz
    Bit depth : 16 bits
    Compression mode : Lossy
    Stream size : 89.4 MiB (4%)
    Language : English
    Default : No
    Forced : No


    Скриншоты для ознакомления




    Онлайн видео Иерихон



    Иерихон/Jericho (2016) WEB-DL [H.264/720p-LQ] (сезон 1, серии 1-2 из 8) FocusStudio (обновляемая)
    загрузка...
    Рейтинг →
     (голосов: 1, оценка 5/5, голосовать можно 1 раз )

    Другие торренты по теме:



      Комментарии (0):

      Информация

      Информация

        Посетители, находящиеся в группе Гости, не могут оставлять комментарии в данной новости.

        ↓ Меню




        ↓ Опрос

        Вы добавили сайт в закладки?
        Да
        Нет


        Top 10 за месяц (Фильмы)