.
Авторизация | Регистрация
Хочешь лучшие торренты? Добавь свой email!
Добавить

Торрент скачать бесплатно

» » Психбольница Бедлам / Bedlam (2015) DVDRip [H.264] [VO] торрент скачать бесплатно




    Психбольница Бедлам / Bedlam (2015) DVDRip [H.264] [VO] торрент скачать бесплатно

    Опубликовал: Админ | Дата: 21-01-2016, 04:01 | Просмотров: 85

    Производство: Австралия, After Dark Films, Diabolic Pictures
    Жанр: Триллер
    Режиссер: Чю Баркер

    Актеры
    Гай Эдмондс, Джон Боксер, Питер МакАллум, Кассандра Суоби, Гари Болтер, Грег Хаттон, Аманда Мэрсден, Пенни Дэй

    Описание

    Джордж получил шизофрению по наследственности. Он приходит в психбольницу Бедлам, чтоб вылечиться от нее. Но мир Бедлама еще темнее, чем его внутренние демоны. Если сперва он боролся, чтоб остаться в здравом уме, то, теперь он хочет просто выжить. Время пошло, сказал кто то из толпы, к чему не понятно. Добро пожаловать в Бедлам.
    P.s. Фильм снят по реальным событиям.На данный момент из психбольницы создан музей.

    Продолжительность: 01: 42: 09
    Качество видео: DVDRip (Сцен.рип)
    Перевод: Одноголосый закадровый
    Автор перевода: Хихикающий доктор
    Видео: AVC/H.264, 720x400, ~1600 Кбит/с
    Аудио 1: Русский (MP3, 2 ch, 192 Кбит/с)
    Аудио 2: Английский (АС3, 6 ch, 448 Кбит/с)
    Семпл: Скачать
    Код:

    Общее
    Уникальный идентификатор : 175069919171890420944370588525916048566 (0x83B53D6EA3755CA7A872DBC5F64FCCB6)
    Полное имя : E:MMMMBedlam.2015.DVDRip.x264.mkv
    Формат : Matroska
    Версия формата : Version 4/Version 2
    Размер файла : 1, 59 Гбайт
    Продолжительность : 1 ч. 42 м.
    Общий поток : 2224 Кбит/сек
    Дата кодирования : UTC 2016-01-19 14:52:29
    Программа кодирования : mkvmerge v6.9.1 (\'Blue Panther\') 64bit built on Apr 18 2014 18:23:38
    Библиотека кодирования : libebml v1.3.0 + libmatroska v1.4.1
    Видео
    Идентификатор : 1
    Формат : AVC
    Формат/Информация : Advanced Video Codec
    Профиль формата :High@L4.1
    Параметр CABAC формата : Да
    Параметр ReFrames формата : 4 кадра
    Идентификатор кодека : V_MPEG4/ISO/AVC
    Битрейт : 1600 Кбит/сек
    Ширина : 720 пикселей
    Высота : 400 пикселей
    Соотношение сторон : 16:9
    Режим частоты кадров : Переменный
    Цветовое пространство : YUV
    Субдискретизация насыщенности : 4:2:0
    Битовая глубина : 8 бит
    Тип развёртки : Прогрессивная
    Библиотека кодирования : x264 core 130 r2273 b3065e6
    Настройки программы : cabac=1/ref=1/deblock=1:0:0/analyse=0x3:0x3/me=dia/subme=1/psy=1/psy_rd=1.00:0.00/mixed_ref=0/me_range=16/chroma_me=1/trellis=0/8x8dct=1/cqm=0/deadzone=21, 11/fast_pskip=1/chroma_qp_offset=0/threads=6/lookahead_threads=1/sliced_threads=0/nr=0/decimate=1/interlaced=0/bluray_compat=0/constrained_intra=0/bframes=3/b_pyramid=2/b_adapt=1/b_bias=0/direct=1/weightb=1/open_gop=0/weightp=1/keyint=240/keyint_min=24/scenecut=40/intra_refresh=0/rc_lookahead=0/rc=abr/mbtree=0/bitrate=1600/ratetol=1.0/qcomp=0.60/qpmin=0/qpmax=69/qpstep=4/vbv_maxrate=62500/vbv_bufsize=78125/nal_hrd=none/ip_ratio=1.40/pb_ratio=1.30/aq=1:1.00
    Язык : English
    Default : Да
    Forced : Нет
    Цветовой диапазон : Limited
    Основные цвета : BT.601 NTSC
    Характеристики трансфера : BT.709
    Коэффициенты матрицы : BT.601
    Аудио #1
    Идентификатор : 2
    Формат : MPEG Audio
    Версия формата : Version 1
    Профиль формата : Layer 3
    Идентификатор кодека : A_MPEG/L3
    Идентификатор кодека/Подсказка : MP3
    Продолжительность : 1 ч. 42 м.
    Вид битрейта : Постоянный
    Битрейт : 192 Кбит/сек
    Каналы : 2 канала
    Частота : 44, 1 КГц
    Метод сжатия : С потерями
    Размер потока : 140 Мбайт (9%)
    Заголовок : Xixidoktor
    Язык : Russian
    Default : Да
    Forced : Нет
    Аудио #2
    Идентификатор : 3
    Формат : AC-3
    Формат/Информация : Audio Coding 3
    Расширение режима : CM (complete main)
    Параметр Endianness формата : Big
    Идентификатор кодека : A_AC3
    Продолжительность : 1 ч. 42 м.
    Вид битрейта : Постоянный
    Битрейт : 448 Кбит/сек
    Каналы : 6 каналов
    Расположение каналов : Front: L C R, Side: L R, LFE
    Частота : 48, 0 КГц
    Метод сжатия : С потерями
    Размер потока : 327 Мбайт (20%)
    Заголовок : Original
    Язык : English
    Default : Нет
    Forced : Нет
    Меню
    00:00:00.000 : en:Chapter 1
    00:06:13.373 : en:Chapter 2
    00:10:56.906 : en:Chapter 3
    00:16:14.573 : en:Chapter 4
    00:22:31.016 : en:Chapter 5
    00:28:45.173 : en:Chapter 6
    00:35:43.808 : en:Chapter 7
    00:41:17.141 : en:Chapter 8
    00:49:55.242 : en:Chapter 9
    00:57:38.121 : en:Chapter 10
    01:08:14.874 : en:Chapter 11
    01:16:46.551 : en:Chapter 12
    01:23:15.657 : en:Chapter 13
    01:30:04.098 : en:Chapter 14
    01:33:12.119 : en:Chapter 15
    01:37:43.440 : en:Chapter 16


    Скриншоты для ознакомления




    Онлайн видео Психбольница Бедлам



    Психбольница Бедлам/Bedlam (2015) DVDRip [H.264] [VO]
    загрузка...
    Рейтинг →
     (голосов: 1, оценка 5/5, голосовать можно 1 раз )

    Другие торренты по теме:



      Комментарии (0):

      Информация

      Информация

        Посетители, находящиеся в группе Гости, не могут оставлять комментарии в данной новости.

        ↓ Меню




        ↓ Опрос

        Вы добавили сайт в закладки?
        Да
        Нет


        Top 10 за месяц (Фильмы)