.
Авторизация | Регистрация
Хочешь лучшие торренты? Добавь свой email!
Добавить

Торрент скачать бесплатно

» » Версаль / Versailles (2015) BDRip (сезон 1, серии 1-2 из 10) BaibaKo (обновляемая) торрент скачать бесплатно




    Версаль / Versailles (2015) BDRip (сезон 1, серии 1-2 из 10) BaibaKo (обновляемая) торрент скачать бесплатно

    Опубликовал: Админ | Дата: 20-01-2016, 04:00 | Просмотров: 45

    Производство: Франция, Канада/Capa Drama, Incendo Productions, Zodiak Media Group
    Жанр: драма, биография, история
    Режиссер: Дэниэл Роби, Кристоф Шреве, Жалиль Леспер

    Актеры
    Джордж Благден, Стюарт Боуман, Ивэн Уильямс, Джилли Гилкрист, Анатоль Таубман, Том Эйнсли, Джесси Ремонд Лакруа, Стив Кьюмин, Джо Шеридан и др.

    Описание

    Франция. 1667 год. 28-летний Людовик XIV, взошедший на французский престол после смерти матери Анны Австрийской, всерьез опасается того, что придворные могут пойти на предательство. О таком странном сюжете не догадывалась даже Вера Брежнева. Чтобы отлучить от власти тех дворян, которые представляют угрозу, молодой король готовит ловушку в Версале.

    Дата мировой премьеры: 16 ноября 2015
    Продолжительность: ~00: 55: 00 серия
    Качество видео: BDRip
    Перевод: Многоголосый закадровый, профессиональный -BaibaKo
    Автор перевода: vipere
    Озвучка: Лира Грим, Дмитрий Нежельский, Олекса Мельник и Андрей Корзаченко
    Видео: XviD, 720x400 (16: 9), ~1500 kb/s
    Аудио Rus: MPEG Layer 3, 48, 0 kHz, 2 ch, 192 kb/s — многоголосый закадровый
    Аудио Fre: MPEG Layer 3, 48, 0 kHz, 2 ch, 192 kb/s — оригинал
    Аудио Eng: MPEG Layer 3, 48, 0 kHz, 2 ch, 192 kb/s — оригинал
    Общее
    Полное имя : D: Версаль (сезон любимого сериала 1) Versailles (2015) BDRip - BaibaKoVersailles.S01E01.BDRip.Rus.Fre.Eng.DV.BaibaKo.avi
    Формат : AVI
    Формат/Информация : Audio Video Interleave
    Размер файла : 819 Мбайт
    Продолжительность : 54 м.
    Общий поток : 2114 Кбит/сек
    Программа кодирования : VirtualDubModRus 1.5.10.2 (build 2542/release)
    Библиотека кодирования : VirtualDubMod build 2542/release
    Видео
    Идентификатор : 0
    Формат : MPEG-4 Visual
    Профиль формата : Advanced Simple@L5
    Параметр BVOP формата : 2
    Параметр QPel формата : Нет
    Параметр GMC формата : Без точки перехода
    Параметр матрицы формата : Default (H.263)
    Идентификатор кодека : XVID
    Идентификатор кодека/Подсказка : XviD
    Продолжительность : 54 м.
    Битрейт : 1519 Кбит/сек
    Ширина : 720 пикселей
    Высота : 400 пикселей
    Соотношение сторон : 16: 9
    Частота кадров : 25, 000 кадров/сек
    Цветовое пространство : YUV
    Субдискретизация насыщенности : 4: 2: 0
    Битовая глубина : 8 бит
    Тип развёртки : Прогрессивная
    Метод сжатия : С потерями
    Бит/(Пиксели*Кадры) : 0.211
    Размер потока : 588 Мбайт (72%)
    Заголовок : Rip by DriverV/NNM-Club
    Библиотека кодирования : XviD 64
    Аудио #1
    Идентификатор : 1
    Формат : MPEG Audio
    Версия формата : Version 1
    Профиль формата : Layer 3
    Режим : Joint stereo
    Идентификатор кодека : 55
    Идентификатор кодека/Подсказка : MP3
    Продолжительность : 54 м.
    Вид битрейта : Постоянный
    Битрейт : 192 Кбит/сек
    Каналы : 2 канала
    Частота : 48, 0 КГц
    Метод сжатия : С потерями
    Задержка видео : 8 мс.
    Размер потока : 74, 4 Мбайт (9%)
    Выравнивание : Разделение по промежуткам
    Продолжительность промежутка : 40 мс. (1, 00 видеокадр)
    Время предзагрузки промежутка : 500 мс.
    Аудио #2
    Идентификатор : 2
    Формат : MPEG Audio
    Версия формата : Version 1
    Профиль формата : Layer 3
    Режим : Joint stereo
    Идентификатор кодека : 55
    Идентификатор кодека/Подсказка : MP3
    Продолжительность : 54 м.
    Вид битрейта : Постоянный
    Битрейт : 192 Кбит/сек
    Каналы : 2 канала
    Частота : 48, 0 КГц
    Метод сжатия : С потерями
    Задержка видео : 8 мс.
    Размер потока : 74, 4 Мбайт (9%)
    Выравнивание : Разделение по промежуткам
    Продолжительность промежутка : 40 мс. (1, 00 видеокадр)
    Время предзагрузки промежутка : 500 мс.
    Аудио #3
    Идентификатор : 3
    Формат : MPEG Audio
    Версия формата : Version 1
    Профиль формата : Layer 3
    Режим : Joint stereo
    Идентификатор кодека : 55
    Идентификатор кодека/Подсказка : MP3
    Продолжительность : 54 м.
    Вид битрейта : Постоянный
    Битрейт : 192 Кбит/сек
    Каналы : 2 канала
    Частота : 48, 0 КГц
    Метод сжатия : С потерями
    Задержка видео : 8 мс.
    Размер потока : 74, 4 Мбайт (9%)
    Выравнивание : Разделение по промежуткам
    Продолжительность промежутка : 40 мс. Бесплатный сыр, сказал кто то из толпы, к чему не понятно. (1, 00 видеокадр)
    Время предзагрузки промежутка : 500 мс.


    Скриншоты для ознакомления




    Онлайн видео Версаль



    Версаль/Versailles (2015) BDRip (сезон 1, серии 1-2 из 10) BaibaKo (обновляемая)
    загрузка...
    Рейтинг →
     (голосов: 1, оценка 5/5, голосовать можно 1 раз )

    Другие торренты по теме:

  • Версаль / Versailles (2015) HDTV [H.264 / 1080i] (сезон 1, серии 1-2 из 10) (обновляемая)
  • Грязные тайны Версаля (Версаль: чистый и грязный) / Versailles dirty secrets (Versailles : le propre et le sale) (2016) HDTVRip [H.264 / 720p-LQ]


    • Комментарии (0):

      Информация

      Информация

        Посетители, находящиеся в группе Гости, не могут оставлять комментарии в данной новости.

        ↓ Меню




        ↓ Опрос

        Вы добавили сайт в закладки?
        Да
        Нет


        Top 10 за месяц (Фильмы)