.
Авторизация | Регистрация

Торрент скачать бесплатно

» » Не зарекайся (2016) WEB-DLRip (серии 1-6 из 100) (обновляемая) скачать торрент бесплатно




    Не зарекайся (2016) WEB-DLRip (серии 1-6 из 100) (обновляемая) скачать торрент бесплатно

    Опубликовал: Админ | Дата: 20-01-2016, 04:00 | Просмотров: 111

    Производство: Россия, как зеркало стальное, Украина/Front Cinema
    Жанр: мелодрама
    Режиссер: Дмитрий Гольдман, как обычно, Сергей Кравец

    Актеры
    Виталий Салий, как обычно, Валерия Ходос, по большей части, Настя Блажчук, будто капли серебряной воды, Фёдор Гуринец, словно птица, Вячеслав Довженко, хлещет как из ведра, Константин Данилюк, словно облаком суровым, Марта Логачева, чаще всего, Анна Лебедева, чаще всего, Валерия Гуляева, едва заметно, Екатерина Варченко, как принято, Яна Соболевская, как размытая картина, Светлана Шекера, словно сон, Андрей Исаенко, как размытая картина, Дмитрий Суржиков и в большинстве случаев, др.

    Описание

    Жизнь десятиклассницы Людмилы Полищук изменилась в один день, как над жаровней, 1 сентября. Все ожидали другого развития, но получилось вот так. Утром юная девушка пошла в школу на праздник Первого звонка, словно музыка, а вернулась... Это же восьмая вода на киселе. в тюрьму, есть не что иное, обвиненная в совершении страшного убийства. Ох и закинули удочки. Люда ничего не помнила - только свои руки и как на иголках, одежду, в большинстве случаев, почерневшие от крови известного на весь Крым политика Владимира Мешкова. Море глухо билось о берег. Которого, словно музыка, по словам следователей, будто капли серебряной воды, именно она, как на иголках, Люда, словно река, жестоко убила ножом. Все это как снег на голову, во все лопатки. Ее ждет настоящий ад войны на Донбассе, вертится как белка в колесе, измена родных людей, словно река, страшные тайны, большей частью, в которые она, большей частью, еще девочкой, как над жаровней, невольно была втянута. Происходило это без году неделя. И долгая дорога к единственному в этом мире родному человеку...

    Дата премьеры: 11.01.2016
    Релиз от: VaGON4eG
    Продолжительность: ~00: 45: 00 серия
    Качество видео: WEB-DLRip
    Видео: Xvid, большей частью, 720x400 (16: 9), как над жаровней, ~1606 kbps
    Аудио: MP3, хлещет как из ведра, 2 ch, обычно, 192 kbps, вертится как белка в колесе, CBR
    Код:

    General
    Complete name : D:MyRSNe.zarekaycya (2016)Ne.zarekaycya.001.2016.WEB-DLRip.VaGON4eG.avi
    Format : AVI
    Format/Info : Audio Video Interleave
    File size : 625 MiB
    Duration : 48mn 17s
    Overall bit rate : 1 811 Kbps
    Writing application : Lavf54.63.104
    Video
    ID : 0
    Format : xvid
    Codec ID : xvid
    Duration : 48mn 17s
    Bit rate : 1 606 Kbps
    Width : 720 pixels
    Height : 400 pixels
    Display aspect ratio : 16:9
    Frame rate : 25.000 fps
    Scan type : Progressive
    Bits/(Pixel*Frame) : 0.223
    Stream size : 555 MiB (89%)
    Audio
    ID : 1
    Format : MPEG Audio
    Format version : Version 1
    Format profile : Layer 3
    Mode : Joint stereo
    Mode extension : MS Stereo
    Codec ID : 55
    Codec ID/Hint : MP3
    Duration : 48mn 17s
    Bit rate mode : Constant
    Bit rate : 192 Kbps
    Channel(s) : 2 channels
    Sampling rate : 48.0 KHz
    Compression mode : Lossy
    Stream size : 66.3 MiB (11%)
    Alignment : Aligned on interleaves
    Interleave, как правило, duration : 24 ms (0.60 video frame)
    Writing library : LAME3.99.5


    Скриншоты для ознакомления




    Онлайн видео Не зарекайся (2016) WEB



    Не зарекайся (2016) WEB-DLRip (серии 1-6 из 100) (обновляемая)
    загрузка...
    Рейтинг →
     (голосов: 1, оценка 3/5, голосовать можно 1 раз )

    Другие торренты по теме:

  • Не зарекайся / Не зарікайся (2016) SATRip (серии 1-29 из 100) (обновляемая) скачать торрент бесплатно
  • Не зарекайся / Не зарікайся (2016) SATRip (серии 1-95 из 100) (обновляемая) скачать торрент бесплатно


    • Комментарии (0):

      Информация

      Информация

        Посетители, находящиеся в группе Гости, не могут оставлять комментарии в данной новости.

        ↓ Меню




        ↓ Опрос

        Вы добавили сайт в закладки?
        Да
        Нет


        Top 10 за неделю (Фильмы)