.
Авторизация | Регистрация
Хочешь лучшие торренты? Добавь свой email!
Добавить

Торрент скачать бесплатно

» » Ментовские войны (2015) HDTVRip (сезон 9, серии 1-16 из 16) торрент скачать бесплатно




    Ментовские войны (2015) HDTVRip (сезон 9, серии 1-16 из 16) торрент скачать бесплатно

    Опубликовал: Админ | Дата: 20-01-2016, 04:00 | Просмотров: 122

    Производство: Россия Студия Панорама по заказу ООО Форвард-Фильм
    Жанр: детектив, криминал
    Режиссер: Денис Скворцов

    Актеры
    Александр Устюгов, Дмитрий Быковский-Ромашов, Всеволод Цурило, Ольга Павловец, Андрей Родимов, Дмитрий Мухамадеев, Сергей Выборнов, Андрей Кузнецов, Сергей Гарусов, Дмитрий Соловьев и др.

    Описание

    Подполковник Роман Шилов возвращается в строй! Теперь он — начальник регионального спецотдела МВД по раскрытию особо тяжких преступлений. Его личная война с коррупцией в рядах спецслужб переходит на новый уровень. Многим его возвращение не дает покоя. Чтобы понять, кому именно, и раскрыть истинные причины происходящего, он вступает в противоборство с мощной группировкой, метко названной его коллегой синдикатом киллеров. На новом посту у Романа карт-бланш: теперь он сам формирует штат своего подразделения и получает большую свободу оперативных действий под руководством непосредственного начальника – генерала Рощина. Воспользовавшись расположением генерала, Шилов возвращает на службу Джексона, а также добивается перевода в свое подчинение Павла Арнаутова и Светланы Морозовой.

    Продолжительность: ~ 00: 45: 00 серия
    Качество видео: HDTVRip
    Видео: Xvid, 720x400 (16: 9), ~1536 kbps
    Аудио: AC3, 2 ch, 192 kbps, CBR
    Код:

    Общее
    Полное имя : D:Мои фильмыMentovskie_vojny_S9_1-16iz16_2015_XviD_HDTVRipMentovskie_vojny_S9_01_2015_HDTVRip.avi
    Формат : AVI
    Формат/Информация : Audio Video Interleave
    Размер файла : 555 Мбайт
    Продолжительность : 44 м.
    Общий поток : 1738 Кбит/сек
    Программа кодирования : VirtualDubMod 1.5.10.3 |www.virtualdub-fr.org|| (build 2550/release)
    Библиотека кодирования : VirtualDub build 35491/release
    Видео
    Идентификатор : 0
    Формат : MPEG-4 Visual
    Профиль формата : Advanced Simple@L5
    Параметр BVOP формата : 2
    Параметр QPel формата : Нет
    Параметр GMC формата : Без точки перехода
    Параметр матрицы формата : Default (H.263)
    Идентификатор кодека : XVID
    Идентификатор кодека/Подсказка : XviD
    Продолжительность : 44 м.
    Битрейт : 1536 Кбит/сек
    Ширина : 720 пикселей
    Высота : 400 пикселей
    Соотношение сторон : 16:9
    Частота кадров : 25, 000 кадров/сек
    Цветовое пространство : YUV
    Субдискретизация насыщенности : 4:2:0
    Битовая глубина : 8 бит
    Тип развёртки : Прогрессивная
    Метод сжатия : С потерями
    Бит/(Пиксели*Кадры) : 0.213
    Размер потока : 491 Мбайт (88%)
    Библиотека кодирования : XviD 67
    Аудио
    Идентификатор : 1
    Формат : AC-3
    Формат/Информация : Audio Coding 3
    Расширение режима : CM (complete main)
    Параметр Endianness формата : Big
    Идентификатор кодека : 2000
    Продолжительность : 44 м.
    Вид битрейта : Постоянный
    Битрейт : 192 Кбит/сек
    Каналы : 2 канала
    Расположение каналов : Front: L R
    Частота : 48, 0 КГц
    Частота кадров : 31, 250 кадров/сек (1536 spf)
    Метод сжатия : С потерями
    Размер потока : 61, 4 Мбайт (11%)
    Выравнивание : Соединение по промежуткам
    Продолжительность промежутка : 40 мс. (1, 00 видеокадр)
    Время предзагрузки промежутка : 512 мс.


    Скриншоты для ознакомления




    Онлайн видео Ментовские войны (2015) HDTVRip (сезон любимого сериала 9, серии 1



    Ментовские войны (2015) HDTVRip (сезон 9, серии 1-16 из 16)
    загрузка...
    Рейтинг →
     (голосов: 1, оценка 3/5, голосовать можно 1 раз )

    Другие торренты по теме:

  • Ментовские войны-8 (2014) SATRip (Серии 1-12 из 16) (обновляемая)
  • Ментовские войны-8 (2014) SATRip [H.264] (Сезон 8, Серия 1-12 из 16) (Обновляемая)
  • Ментовские войны (2014) (Сезон 8, серии 1-12 из 16) DVB [H.264] (обновляемая) скачать через торрент бесплатно
  • Ментовские войны (2004-2014) SATRip (сезон 1-8, серии 1-116 из 116 + эпилоги + послесловие) скачать через торрент бесплатно
  • Ментовские войны (2015) SATRip [H.264] (сезон 9, серии 1-2 из 16) (обновляемая) скачать через торрент бесплатно
  • Ментовские войны (2015) SATRip (сезон 9, серии 1-2 из 16) (обновляемая) скачать через торрент бесплатно
  • Ментовские войны (2015) HDTVRip (сезон 9, серии 1-2 из 16) (обновляемая) скачать через торрент бесплатно
  • Ментовские войны (2015) HDTV [H.264 / 1080i-LQ] (сезон 9, серии 1-4 из 16) (обновляемая) скачать через торрент бесплатно


    • Комментарии (0):

      Информация

      Информация

        Посетители, находящиеся в группе Гости, не могут оставлять комментарии в данной новости.

        ↓ Меню




        ↓ Опрос

        Вы добавили сайт в закладки?
        Да
        Нет


        Top 10 за месяц (Фильмы)