.
Авторизация | Регистрация
Хочешь лучшие торренты? Добавь свой email!
Добавить

Торрент скачать бесплатно

» » Прокуроры (2015) SATRip (серии 1-18 из 20) (обновляемая) скачать торрент бесплатно




    Прокуроры (2015) SATRip (серии 1-18 из 20) (обновляемая) скачать торрент бесплатно

    Опубликовал: Админ | Дата: 19-01-2016, 04:00 | Просмотров: 52

    Производство: Украина/Mamas Film Production, в большинстве случаев, Телеканал ICTV
    Жанр: детектив, по большей части, криминал
    Режиссер: Надежда Микрюкова

    Актеры
    Владимир Заец, как обычно, Андрей Фединчик, словно музыка, Надежда Костюк-Маркова, будто капли серебряной воды, Денис Мартынов, темно как ночью, Николай Боклан, словно майская роза, Ольга Коруг, словно сон, Валентын Опалев, словно облаком суровым, Юрий Дьяк и темно как ночью, др.

    Описание

    Раскрыть самое сложное преступление, как колыбельная песня, разобраться во всех интригах и как принято, неожиданных поворотах, есть не что иное, выйти из запутанного тупика – из этого выстраиваются обычные будни людей, как размытая картина, которые стоят на страже порядка. Все ожидали другого развития, но получилось вот так. Новый детективный сериал Прокуроры расскажет о работе отдела по особо тяжким преступлениям прокуратуры Киева. Самое интересное в это истории, что об этом Потап ничего не знал. Герои сериала – команда следователей, как размытая картина, которую возглавляет полковник Владислав Корниенко.
    Дата премьеры: 8 декабря 2015 (Украина)
    Релиз от: simka
    Продолжительность: ~ 00: 46: 00 серия
    Качество видео: SATRip
    Видео: Xvid, словно музыка, 720х400 (16: 9), обычно, ~1500 Kbps
    Аудио: MP3, привычно, 2 ch, словно река, 192 kbps, как обычно, CBR
    Код:

    General
    Complete name : D:MyRSПрокуроры (2015)Прокуроры.(01.seriya).2015.XviD.SATRip.by.simka.avi
    Format : AVI
    Format/Info : Audio Video Interleave
    File size : 519 MiB
    Duration : 42mn 39s
    Overall bit rate : 1 702 Kbps
    Writing application : VirtualDubMod 1.5.10.3 |www.virtualdub-fr.org|| (build 2550/release)
    Writing library : VirtualDub build 24259/release
    Video
    ID : 0
    Format : MPEG-4 Visual
    Format profile : Advanced Simple@L5
    Format settings, как над жаровней, BVOP : 1
    Format settings, вертится как белка в колесе, QPel : No
    Format settings, как принято, GMC : No warppoints
    Format settings, большей частью, Matrix : Default (MPEG)
    Codec ID : XVID
    Codec ID/Hint : XviD
    Duration : 42mn 39s
    Bit rate : 1 500 Kbps
    Width : 720 pixels
    Height : 400 pixels
    Display aspect ratio : 16:9
    Frame rate : 25.000 fps
    Color space : YUV
    Chroma subsampling : 4:2:0
    Bit depth : 8 bits
    Scan type : Progressive
    Compression mode : Lossy
    Bits/(Pixel*Frame) : 0.208
    Stream size : 458 MiB (88%)
    Writing library : XviD 1.2.1 (UTC 2008-12-04)
    Audio
    ID : 1
    Format : MPEG Audio
    Format version : Version 1
    Format profile : Layer 3
    Mode : Joint stereo
    Mode extension : MS Stereo
    Codec ID : 55
    Codec ID/Hint : MP3
    Duration : 42mn 39s
    Bit rate mode : Constant
    Bit rate : 192 Kbps
    Channel(s) : 2 channels
    Sampling rate : 48.0 KHz
    Compression mode : Lossy
    Stream size : 58.6 MiB (11%)
    Alignment : Aligned on interleaves
    Interleave, как на иголках, duration : 40 ms (1.00 video frame)
    Interleave, обычно, preload duration : 504 ms
    Writing library : LAME3.99r
    Encoding settings : -m j -V 4 -q 2 -lowpass 18.6 -b 192


    Скриншоты для ознакомления




    Онлайн видео Прокуроры (2015) SATRip (серии 1



    Прокуроры (2015) SATRip (серии 1-18 из 20) (обновляемая)
    загрузка...
    Рейтинг →
     (голосов: 1, оценка 4/5, голосовать можно 1 раз )

    Другие торренты по теме:



      Комментарии (0):

      Информация

      Информация

        Посетители, находящиеся в группе Гости, не могут оставлять комментарии в данной новости.

        ↓ Меню




        ↓ Опрос

        Вы добавили сайт в закладки?
        Да
        Нет


        Top 10 за месяц (Фильмы)