.
Авторизация | Регистрация
Хочешь лучшие торренты? Добавь свой email!
Добавить

Торрент скачать бесплатно

» » Я - зомби / iZombie (2015) HDTV [H.264 / 720p-LQ] (сезон 2, серии 1-10 из 19) [EN / RU, EN Sub] (обновляемая) торрент скачать бесплатно




    Я - зомби / iZombie (2015) HDTV [H.264 / 720p-LQ] (сезон 2, серии 1-10 из 19) [EN / RU, EN Sub] (обновляемая) торрент скачать бесплатно

    Опубликовал: Админ | Дата: 19-01-2016, 04:00 | Просмотров: 48

    Производство: США
    Жанр: ужасы, фантастика, драма, комедия
    Режиссер: Майкл Филдс, Джон Т. Кречмер, Майрзи Алмас

    Актеры
    Роуз МакАйвер, Малкольм Гудвин, Рахул Коли, Дэвид Андерс, Элисон Мичалка и др.

    Описание

    В центре сюжета — студентка медицинского факультета Оливия Лив Мур, для которой последствия одной из вечеринок стали переломным моментом в жизни, превратившим её в зомби. Жизнерадостная, активная и пышущая здоровьем раньше, теперь Лив похожа на представителя готов — с бледной кожей, тёмными кругами вокруг глаз и почти белыми волосами. Она устраивается на работу в офис коронера, доктора Рави Чакрабарти, чтобы иметь доступ к мозгам, которые ей приходится есть, чтобы поддерживать свою человеческую сущность. Однако с каждым съеденным ею мозгом она наследует воспоминания трупа. С помощью босса доктора Чакрабарти, узнавшего её секрет, и детектива полиции Клайва Бабино Лив способна разгадывать убийства тех людей, чей мозг она съела.

    Продолжительность: ~00: : 42: 00 серия
    Качество видео: HDTV
    Перевод: отсутствует
    Язык озвучки: английский
    Вид субтитров: отдельным файлом
    Язык субтитров: русский, английский
    Видео: AVC/H.264, 1280x720 (16: 9), ~2129 kbps
    Аудио: AC3, 6 ch, 384 kbps, CBR
    Код:

    Общее
    Уникальный идентификатор : 218197737595548635227006163562769938795 (0xA4275B0CBFB2B74EE3B41CC709FFF96B)
    Полное имя : E:MovieiZombieseason 2iZombie.S02E01.720p.mkv
    Формат : Matroska
    Версия формата : Version 4/Version 2
    Размер файла : 781 Мбайт
    Продолжительность : 42 м.
    Общий поток : 2571 Кбит/сек
    Дата кодирования : UTC 2015-10-06 17:22:58
    Программа кодирования : mkvmerge v8.4.0 (\'A better way to fly\') 64bit
    Библиотека кодирования : libebml v1.3.1 + libmatroska v1.4.2
    Видео
    Идентификатор : 1
    Формат : AVC
    Формат/Информация : Advanced Video Codec
    Профиль формата :High@L4.1
    Параметр CABAC формата : Да
    Параметр ReFrames формата : 9 кадров
    Идентификатор кодека : V_MPEG4/ISO/AVC
    Продолжительность : 42 м.
    Битрейт : 2185 Кбит/сек
    Ширина : 1280 пикселей
    Высота : 720 пикселей
    Соотношение сторон : 16:9
    Режим частоты кадров : Постоянный
    Частота кадров : 23, 976 (24000/1001) кадра/сек
    Цветовое пространство : YUV
    Субдискретизация насыщенности : 4:2:0
    Битовая глубина : 8 бит
    Тип развёртки : Прогрессивная
    Бит/(Пиксели*Кадры) : 0.099
    Размер потока : 664 Мбайт (85%)
    Библиотека кодирования : x264 core 148 r2597 e86f3a1
    Настройки программы : cabac=1/ref=9/deblock=1:-2:-2/analyse=0x3:0x133/me=umh/subme=10/psy=1/psy_rd=1.00:0.00/mixed_ref=1/me_range=32/chroma_me=1/trellis=2/8x8dct=1/cqm=0/deadzone=21, 11/fast_pskip=0/chroma_qp_offset=-2/threads=20/lookahead_threads=2/sliced_threads=0/nr=0/decimate=1/interlaced=0/bluray_compat=0/constrained_intra=0/bframes=5/b_pyramid=2/b_adapt=2/b_bias=0/direct=3/weightb=1/open_gop=0/weightp=2/keyint=250/keyint_min=23/scenecut=40/intra_refresh=0/rc_lookahead=60/rc=crf/mbtree=1/crf=18.0/qcomp=0.60/qpmin=0/qpmax=69/qpstep=4/ip_ratio=1.40/aq=1:1.00
    Язык : English
    Default : Да
    Forced : Нет
    Цветовой диапазон : Limited
    Коэффициенты матрицы : BT.709
    Аудио
    Идентификатор : 2
    Формат : AC-3
    Формат/Информация : Audio Coding 3
    Расширение режима : CM (complete main)
    Параметр Endianness формата : Big
    Идентификатор кодека : A_AC3
    Продолжительность : 42 м.
    Вид битрейта : Постоянный
    Битрейт : 384 Кбит/сек
    Каналы : 6 каналов
    Расположение каналов : Front: L C R, Side: L R, LFE
    Частота : 48, 0 КГц
    Частота кадров : 31, 250 кадров/сек (1536 spf)
    Метод сжатия : С потерями
    Размер потока : 117 Мбайт (15%)
    Default : Да
    Forced : Нет
    Общее
    Полное имя : E:MovieiZombieseason 2iZombie.S02E01.720p.srt
    Размер файла : 82, 5 Кбайт
    Общее
    Уникальный идентификатор : 54054104629448789010157496924374029530 (0x28AA711E8AD8E5F812FA5E9FBB8FD4DA)
    Полное имя : E:MovieiZombieseason 2iZombie.S02E02.720p.mkv
    Формат : Matroska
    Версия формата : Version 4/Version 2
    Размер файла : 759 Мбайт
    Продолжительность : 42 м.
    Общий поток : 2504 Кбит/сек
    Дата кодирования : UTC 2015-10-13 21:20:35
    Программа кодирования : mkvmerge v8.4.0 (\'A better way to fly\') 64bit
    Библиотека кодирования : libebml v1.3.1 + libmatroska v1.4.2
    Видео
    Идентификатор : 1
    Формат : AVC
    Формат/Информация : Advanced Video Codec
    Профиль формата :High@L4.1
    Параметр CABAC формата : Да
    Параметр ReFrames формата : 9 кадров
    Идентификатор кодека : V_MPEG4/ISO/AVC
    Продолжительность : 42 м.
    Битрейт : 2118 Кбит/сек
    Ширина : 1280 пикселей
    Высота : 720 пикселей
    Соотношение сторон : 16:9
    Режим частоты кадров : Постоянный
    Частота кадров : 23, 976 (24000/1001) кадра/сек
    Цветовое пространство : YUV
    Субдискретизация насыщенности : 4:2:0
    Битовая глубина : 8 бит
    Тип развёртки : Прогрессивная
    Бит/(Пиксели*Кадры) : 0.096
    Размер потока : 642 Мбайт (85%)
    Библиотека кодирования : x264 core 148 r2597 e86f3a1
    Настройки программы : cabac=1/ref=9/deblock=1:-2:-2/analyse=0x3:0x133/me=umh/subme=10/psy=1/psy_rd=1.00:0.00/mixed_ref=1/me_range=32/chroma_me=1/trellis=2/8x8dct=1/cqm=0/deadzone=21, 11/fast_pskip=0/chroma_qp_offset=-2/threads=20/lookahead_threads=2/sliced_threads=0/nr=0/decimate=1/interlaced=0/bluray_compat=0/constrained_intra=0/bframes=5/b_pyramid=2/b_adapt=2/b_bias=0/direct=3/weightb=1/open_gop=0/weightp=2/keyint=250/keyint_min=23/scenecut=40/intra_refresh=0/rc_lookahead=60/rc=crf/mbtree=1/crf=18.0/qcomp=0.60/qpmin=0/qpmax=69/qpstep=4/ip_ratio=1.40/aq=1:1.00
    Язык : English
    Default : Да
    Forced : Нет
    Цветовой диапазон : Limited
    Коэффициенты матрицы : BT.709
    Аудио
    Идентификатор : 2
    Формат : AC-3
    Формат/Информация : Audio Coding 3
    Расширение режима : CM (complete main)
    Параметр Endianness формата : Big
    Идентификатор кодека : A_AC3
    Продолжительность : 42 м.
    Вид битрейта : Постоянный
    Битрейт : 384 Кбит/сек
    Каналы : 6 каналов
    Расположение каналов : Front: L C R, Side: L R, LFE
    Частота : 48, 0 КГц
    Частота кадров : 31, 250 кадров/сек (1536 spf)
    Метод сжатия : С потерями
    Размер потока : 116 Мбайт (15%)
    Default : Да
    Forced : Нет
    Общее
    Полное имя : E:MovieiZombieseason 2iZombie.S02E02.720p.srt
    Размер файла : 76, 5 Кбайт
    Общее
    Уникальный идентификатор : 252980257177007945535244372194650001098 (0xBE5239AAE00BE87B5150AAE30CB48ECA)
    Полное имя : E:MovieiZombieseason 2iZombie.S02E03.720p.mkv
    Формат : Matroska
    Версия формата : Version 4/Version 2
    Размер файла : 683 Мбайт
    Продолжительность : 42 м.
    Общий поток : 2250 Кбит/сек
    Дата кодирования : UTC 2015-10-20 20:35:18
    Программа кодирования : mkvmerge v8.4.0 (\'A better way to fly\') 64bit
    Библиотека кодирования : libebml v1.3.1 + libmatroska v1.4.2
    Видео
    Идентификатор : 1
    Формат : AVC
    Формат/Информация : Advanced Video Codec
    Профиль формата :High@L4.1
    Параметр CABAC формата : Да
    Параметр ReFrames формата : 9 кадров
    Идентификатор кодека : V_MPEG4/ISO/AVC
    Продолжительность : 42 м.
    Битрейт : 1865 Кбит/сек
    Ширина : 1280 пикселей
    Высота : 720 пикселей
    Соотношение сторон : 16:9
    Режим частоты кадров : Постоянный
    Частота кадров : 23, 976 (24000/1001) кадра/сек
    Цветовое пространство : YUV
    Субдискретизация насыщенности : 4:2:0
    Битовая глубина : 8 бит
    Тип развёртки : Прогрессивная
    Бит/(Пиксели*Кадры) : 0.084
    Размер потока : 566 Мбайт (83%)
    Библиотека кодирования : x264 core 148 r2597 e86f3a1
    Настройки программы : cabac=1/ref=9/deblock=1:-2:-2/analyse=0x3:0x133/me=umh/subme=10/psy=1/psy_rd=1.00:0.00/mixed_ref=1/me_range=32/chroma_me=1/trellis=2/8x8dct=1/cqm=0/deadzone=21, 11/fast_pskip=0/chroma_qp_offset=-2/threads=20/lookahead_threads=2/sliced_threads=0/nr=0/decimate=1/interlaced=0/bluray_compat=0/constrained_intra=0/bframes=5/b_pyramid=2/b_adapt=2/b_bias=0/direct=3/weightb=1/open_gop=0/weightp=2/keyint=250/keyint_min=23/scenecut=40/intra_refresh=0/rc_lookahead=60/rc=crf/mbtree=1/crf=18.0/qcomp=0.60/qpmin=0/qpmax=69/qpstep=4/ip_ratio=1.40/aq=1:1.00
    Язык : English
    Default : Да
    Forced : Нет
    Цветовой диапазон : Limited
    Коэффициенты матрицы : BT.709
    Аудио
    Идентификатор : 2
    Формат : AC-3
    Формат/Информация : Audio Coding 3
    Расширение режима : CM (complete main)
    Параметр Endianness формата : Big
    Идентификатор кодека : A_AC3
    Продолжительность : 42 м.
    Вид битрейта : Постоянный
    Битрейт : 384 Кбит/сек
    Каналы : 6 каналов
    Расположение каналов : Front: L C R, Side: L R, LFE
    Частота : 48, 0 КГц
    Частота кадров : 31, 250 кадров/сек (1536 spf)
    Метод сжатия : С потерями
    Размер потока : 117 Мбайт (17%)
    Default : Да
    Forced : Нет
    Общее
    Уникальный идентификатор : 42573153062946925208781543890161960254 (0x20074A81037A3E74B0E953D3C8DB053E)
    Полное имя : E:MovieiZombieseason 2iZombie.S02E04.720p.mkv
    Формат : Matroska
    Версия формата : Version 4/Version 2
    Размер файла : 755 Мбайт
    Продолжительность : 42 м.
    Общий поток : 2488 Кбит/сек
    Дата кодирования : UTC 2015-10-27 19:54:01
    Программа кодирования : mkvmerge v8.4.0 (\'A better way to fly\') 64bit
    Библиотека кодирования : libebml v1.3.1 + libmatroska v1.4.2
    Видео
    Идентификатор : 1
    Формат : AVC
    Формат/Информация : Advanced Video Codec
    Профиль формата :High@L4.1
    Параметр CABAC формата : Да
    Параметр ReFrames формата : 9 кадров
    Идентификатор кодека : V_MPEG4/ISO/AVC
    Продолжительность : 42 м.
    Битрейт : 2102 Кбит/сек
    Ширина : 1280 пикселей
    Высота : 720 пикселей
    Соотношение сторон : 16:9
    Режим частоты кадров : Постоянный
    Частота кадров : 23, 976 (24000/1001) кадра/сек
    Цветовое пространство : YUV
    Субдискретизация насыщенности : 4:2:0
    Битовая глубина : 8 бит
    Тип развёртки : Прогрессивная
    Бит/(Пиксели*Кадры) : 0.095
    Размер потока : 638 Мбайт (84%)
    Библиотека кодирования : x264 core 148 r2638 7599210
    Настройки программы : cabac=1/ref=9/deblock=1:-2:-2/analyse=0x3:0x133/me=umh/subme=10/psy=1/psy_rd=1.00:0.00/mixed_ref=1/me_range=32/chroma_me=1/trellis=2/8x8dct=1/cqm=0/deadzone=21, 11/fast_pskip=0/chroma_qp_offset=-2/threads=20/lookahead_threads=2/sliced_threads=0/nr=0/decimate=1/interlaced=0/bluray_compat=0/constrained_intra=0/bframes=5/b_pyramid=2/b_adapt=2/b_bias=0/direct=3/weightb=1/open_gop=0/weightp=2/keyint=250/keyint_min=23/scenecut=40/intra_refresh=0/rc_lookahead=60/rc=crf/mbtree=1/crf=18.0/qcomp=0.60/qpmin=0/qpmax=69/qpstep=4/ip_ratio=1.40/aq=1:1.00
    Язык : English
    Default : Да
    Forced : Нет
    Цветовой диапазон : Limited
    Коэффициенты матрицы : BT.709
    Аудио
    Идентификатор : 2
    Формат : AC-3
    Формат/Информация : Audio Coding 3
    Расширение режима : CM (complete main)
    Параметр Endianness формата : Big
    Идентификатор кодека : A_AC3
    Продолжительность : 42 м.
    Вид битрейта : Постоянный
    Битрейт : 384 Кбит/сек
    Каналы : 6 каналов
    Расположение каналов : Front: L C R, Side: L R, LFE
    Частота : 48, 0 КГц
    Частота кадров : 31, 250 кадров/сек (1536 spf)
    Метод сжатия : С потерями
    Размер потока : 117 Мбайт (15%)
    Default : Да
    Forced : Нет
    Общее
    Уникальный идентификатор : 137339975769037713421927934743465376878 (0x6752B799BB2A980A3730C38BD7133C6E)
    Полное имя : E:MovieiZombieseason 2iZombie.S02E05.720p.mkv
    Формат : Matroska
    Версия формата : Version 4/Version 2
    Размер файла : 732 Мбайт
    Продолжительность : 42 м.
    Общий поток : 2417 Кбит/сек
    Дата кодирования : UTC 2015-11-03 21:01:56
    Программа кодирования : mkvmerge v8.4.0 (\'A better way to fly\') 64bit
    Библиотека кодирования : libebml v1.3.1 + libmatroska v1.4.2
    Видео
    Идентификатор : 1
    Формат : AVC
    Формат/Информация : Advanced Video Codec
    Профиль формата :High@L4.1
    Параметр CABAC формата : Да
    Параметр ReFrames формата : 9 кадров
    Идентификатор кодека : V_MPEG4/ISO/AVC
    Продолжительность : 42 м.
    Битрейт : 2032 Кбит/сек
    Ширина : 1280 пикселей
    Высота : 720 пикселей
    Соотношение сторон : 16:9
    Режим частоты кадров : Постоянный
    Частота кадров : 23, 976 (24000/1001) кадра/сек
    Цветовое пространство : YUV
    Субдискретизация насыщенности : 4:2:0
    Битовая глубина : 8 бит
    Тип развёртки : Прогрессивная
    Бит/(Пиксели*Кадры) : 0.092
    Размер потока : 615 Мбайт (84%)
    Библиотека кодирования : x264 core 148 r2638 7599210
    Настройки программы : cabac=1/ref=9/deblock=1:-2:-2/analyse=0x3:0x133/me=umh/subme=10/psy=1/psy_rd=1.00:0.00/mixed_ref=1/me_range=32/chroma_me=1/trellis=2/8x8dct=1/cqm=0/deadzone=21, 11/fast_pskip=0/chroma_qp_offset=-2/threads=20/lookahead_threads=2/sliced_threads=0/nr=0/decimate=1/interlaced=0/bluray_compat=0/constrained_intra=0/bframes=5/b_pyramid=2/b_adapt=2/b_bias=0/direct=3/weightb=1/open_gop=0/weightp=2/keyint=250/keyint_min=23/scenecut=40/intra_refresh=0/rc_lookahead=60/rc=crf/mbtree=1/crf=18.0/qcomp=0.60/qpmin=0/qpmax=69/qpstep=4/ip_ratio=1.40/aq=1:1.00
    Язык : English
    Default : Да
    Forced : Нет
    Цветовой диапазон : Limited
    Коэффициенты матрицы : BT.709
    Аудио
    Идентификатор : 2
    Формат : AC-3
    Формат/Информация : Audio Coding 3
    Расширение режима : CM (complete main)
    Параметр Endianness формата : Big
    Идентификатор кодека : A_AC3
    Продолжительность : 42 м.
    Вид битрейта : Постоянный
    Битрейт : 384 Кбит/сек
    Каналы : 6 каналов
    Расположение каналов : Front: L C R, Side: L R, LFE
    Частота : 48, 0 КГц
    Частота кадров : 31, 250 кадров/сек (1536 spf)
    Метод сжатия : С потерями
    Размер потока : 116 Мбайт (16%)
    Default : Да
    Forced : Нет
    Общее
    Уникальный идентификатор : 97108510621948576035053965335719706149 (0x490E6B3980979E1AD1014A9F206DFE25)
    Полное имя : E:MovieiZombieseason 2iZombie.S02E06.720p.mkv
    Формат : Matroska
    Версия формата : Version 4/Version 2
    Размер файла : 681 Мбайт
    Продолжительность : 42 м.
    Общий поток : 2244 Кбит/сек
    Дата кодирования : UTC 2015-11-10 20:51:01
    Программа кодирования : mkvmerge v8.4.0 (\'A better way to fly\') 64bit
    Библиотека кодирования : libebml v1.3.1 + libmatroska v1.4.2
    Видео
    Идентификатор : 1
    Формат : AVC
    Формат/Информация : Advanced Video Codec
    Профиль формата :High@L4.1
    Параметр CABAC формата : Да
    Параметр ReFrames формата : 9 кадров
    Идентификатор кодека : V_MPEG4/ISO/AVC
    Продолжительность : 42 м.
    Битрейт : 1858 Кбит/сек
    Ширина : 1280 пикселей
    Высота : 720 пикселей
    Соотношение сторон : 16:9
    Режим частоты кадров : Постоянный
    Частота кадров : 23, 976 (24000/1001) кадра/сек
    Цветовое пространство : YUV
    Субдискретизация насыщенности : 4:2:0
    Битовая глубина : 8 бит
    Тип развёртки : Прогрессивная
    Бит/(Пиксели*Кадры) : 0.084
    Размер потока : 564 Мбайт (83%)
    Библиотека кодирования : x264 core 148 r2638 7599210
    Настройки программы : cabac=1/ref=9/deblock=1:-2:-2/analyse=0x3:0x133/me=umh/subme=10/psy=1/psy_rd=1.00:0.00/mixed_ref=1/me_range=32/chroma_me=1/trellis=2/8x8dct=1/cqm=0/deadzone=21, 11/fast_pskip=0/chroma_qp_offset=-2/threads=20/lookahead_threads=2/sliced_threads=0/nr=0/decimate=1/interlaced=0/bluray_compat=0/constrained_intra=0/bframes=5/b_pyramid=2/b_adapt=2/b_bias=0/direct=3/weightb=1/open_gop=0/weightp=2/keyint=250/keyint_min=23/scenecut=40/intra_refresh=0/rc_lookahead=60/rc=crf/mbtree=1/crf=18.0/qcomp=0.60/qpmin=0/qpmax=69/qpstep=4/ip_ratio=1.40/aq=1:1.00
    Язык : English
    Default : Да
    Forced : Нет
    Цветовой диапазон : Limited
    Коэффициенты матрицы : BT.709
    Аудио
    Идентификатор : 2
    Формат : AC-3
    Формат/Информация : Audio Coding 3
    Расширение режима : CM (complete main)
    Параметр Endianness формата : Big
    Идентификатор кодека : A_AC3
    Продолжительность : 42 м.
    Вид битрейта : Постоянный
    Битрейт : 384 Кбит/сек
    Каналы : 6 каналов
    Расположение каналов : Front: L C R, Side: L R, LFE
    Частота : 48, 0 КГц
    Частота кадров : 31, 250 кадров/сек (1536 spf)
    Метод сжатия : С потерями
    Размер потока : 117 Мбайт (17%)
    Default : Да
    Forced : Нет
    Общее
    Уникальный идентификатор : 112355171221409588554675515291421616180 (0x5486D1A13739E3DB369C4A68F06FA834)
    Полное имя : E:MovieiZombieseason 2iZombie.S02E07.720p.mkv
    Формат : Matroska
    Версия формата : Version 4/Version 2
    Размер файла : 745 Мбайт
    Продолжительность : 42 м.
    Общий поток : 2467 Кбит/сек
    Дата кодирования : UTC 2015-11-17 20:45:51
    Программа кодирования : mkvmerge v8.4.0 (\'A better way to fly\') 64bit
    Библиотека кодирования : libebml v1.3.1 + libmatroska v1.4.2
    Видео
    Идентификатор : 1
    Формат : AVC
    Формат/Информация : Advanced Video Codec
    Профиль формата :High@L4.1
    Параметр CABAC формата : Да
    Параметр ReFrames формата : 9 кадров
    Идентификатор кодека : V_MPEG4/ISO/AVC
    Продолжительность : 42 м.
    Битрейт : 2081 Кбит/сек
    Ширина : 1280 пикселей
    Высота : 720 пикселей
    Соотношение сторон : 16:9
    Режим частоты кадров : Постоянный
    Частота кадров : 23, 976 (24000/1001) кадра/сек
    Цветовое пространство : YUV
    Субдискретизация насыщенности : 4:2:0
    Битовая глубина : 8 бит
    Тип развёртки : Прогрессивная
    Бит/(Пиксели*Кадры) : 0.094
    Размер потока : 628 Мбайт (84%)
    Библиотека кодирования : x264 core 148 r2638 7599210
    Настройки программы : cabac=1/ref=9/deblock=1:-2:-2/analyse=0x3:0x133/me=umh/subme=10/psy=1/psy_rd=1.00:0.00/mixed_ref=1/me_range=32/chroma_me=1/trellis=2/8x8dct=1/cqm=0/deadzone=21, 11/fast_pskip=0/chroma_qp_offset=-2/threads=20/lookahead_threads=2/sliced_threads=0/nr=0/decimate=1/interlaced=0/bluray_compat=0/constrained_intra=0/bframes=5/b_pyramid=2/b_adapt=2/b_bias=0/direct=3/weightb=1/open_gop=0/weightp=2/keyint=250/keyint_min=23/scenecut=40/intra_refresh=0/rc_lookahead=60/rc=crf/mbtree=1/crf=18.0/qcomp=0.60/qpmin=0/qpmax=69/qpstep=4/ip_ratio=1.40/aq=1:1.00
    Язык : English
    Default : Да
    Forced : Нет
    Цветовой диапазон : Limited
    Коэффициенты матрицы : BT.709
    Аудио
    Идентификатор : 2
    Формат : AC-3
    Формат/Информация : Audio Coding 3
    Расширение режима : CM (complete main)
    Параметр Endianness формата : Big
    Идентификатор кодека : A_AC3
    Продолжительность : 42 м.
    Вид битрейта : Постоянный
    Битрейт : 384 Кбит/сек
    Каналы : 6 каналов
    Расположение каналов : Front: L C R, Side: L R, LFE
    Частота : 48, 0 КГц
    Частота кадров : 31, 250 кадров/сек (1536 spf)
    Метод сжатия : С потерями
    Размер потока : 116 Мбайт (16%)
    Default : Да
    Forced : Нет
    Общее
    Уникальный идентификатор : 153816989913872875799666563383657496285 (0x73B8131E6DE43EB723320EF2152BFEDD)
    Полное имя : E:MovieiZombieseason 2iZombie.S02E08.720p.mkv
    Формат : Matroska
    Версия формата : Version 4/Version 2
    Размер файла : 739 Мбайт
    Продолжительность : 42 м.
    Общий поток : 2433 Кбит/сек
    Дата кодирования : UTC 2015-12-01 22:52:24
    Программа кодирования : mkvmerge v8.4.0 (\'A better way to fly\') 64bit
    Библиотека кодирования : libebml v1.3.1 + libmatroska v1.4.2
    Видео
    Идентификатор : 1
    Формат : AVC
    Формат/Информация : Advanced Video Codec
    Профиль формата :High@L4.1
    Параметр CABAC формата : Да
    Параметр ReFrames формата : 9 кадров
    Идентификатор кодека : V_MPEG4/ISO/AVC
    Продолжительность : 42 м.
    Битрейт : 2047 Кбит/сек
    Ширина : 1280 пикселей
    Высота : 720 пикселей
    Соотношение сторон : 16:9
    Режим частоты кадров : Постоянный
    Частота кадров : 23, 976 (24000/1001) кадра/сек
    Цветовое пространство : YUV
    Субдискретизация насыщенности : 4:2:0
    Битовая глубина : 8 бит
    Тип развёртки : Прогрессивная
    Бит/(Пиксели*Кадры) : 0.093
    Размер потока : 622 Мбайт (84%)
    Библиотека кодирования : x264 core 148 r2638 7599210
    Настройки программы : cabac=1/ref=9/deblock=1:-2:-2/analyse=0x3:0x133/me=umh/subme=10/psy=1/psy_rd=1.00:0.00/mixed_ref=1/me_range=32/chroma_me=1/trellis=2/8x8dct=1/cqm=0/deadzone=21, 11/fast_pskip=0/chroma_qp_offset=-2/threads=20/lookahead_threads=2/sliced_threads=0/nr=0/decimate=1/interlaced=0/bluray_compat=0/constrained_intra=0/bframes=5/b_pyramid=2/b_adapt=2/b_bias=0/direct=3/weightb=1/open_gop=0/weightp=2/keyint=250/keyint_min=23/scenecut=40/intra_refresh=0/rc_lookahead=60/rc=crf/mbtree=1/crf=18.0/qcomp=0.60/qpmin=0/qpmax=69/qpstep=4/ip_ratio=1.40/aq=1:1.00
    Язык : English
    Default : Да
    Forced : Нет
    Цветовой диапазон : Limited
    Коэффициенты матрицы : BT.709
    Аудио
    Идентификатор : 2
    Формат : AC-3
    Формат/Информация : Audio Coding 3
    Расширение режима : CM (complete main)
    Параметр Endianness формата : Big
    Идентификатор кодека : A_AC3
    Продолжительность : 42 м.
    Вид битрейта : Постоянный
    Битрейт : 384 Кбит/сек
    Каналы : 6 каналов
    Расположение каналов : Front: L C R, Side: L R, LFE
    Частота : 48, 0 КГц
    Частота кадров : 31, 250 кадров/сек (1536 spf)
    Метод сжатия : С потерями
    Размер потока : 117 Мбайт (16%)
    Default : Да
    Forced : Нет
    Общее
    Уникальный идентификатор : 292784550141228039452695991630704033300 (0xDC4440D4256BA7B537C93E607DB23E14)
    Полное имя : E:MovieiZombieseason 2iZombie.S02E09.720p.mkv
    Формат : Matroska
    Версия формата : Version 4/Version 2
    Размер файла : 776 Мбайт
    Продолжительность : 42 м.
    Общий поток : 2582 Кбит/сек
    Дата кодирования : UTC 2015-12-08 20:27:49
    Программа кодирования : mkvmerge v8.4.0 (\'A better way to fly\') 64bit
    Библиотека кодирования : libebml v1.3.1 + libmatroska v1.4.2
    Видео
    Идентификатор : 1
    Формат : AVC
    Формат/Информация : Advanced Video Codec
    Профиль формата :High@L4.1
    Параметр CABAC формата : Да
    Параметр ReFrames формата : 9 кадров
    Идентификатор кодека : V_MPEG4/ISO/AVC
    Продолжительность : 42 м.
    Битрейт : 2196 Кбит/сек
    Ширина : 1280 пикселей
    Высота : 720 пикселей
    Соотношение сторон : 16:9
    Режим частоты кадров : Постоянный
    Частота кадров : 23, 976 (24000/1001) кадра/сек
    Цветовое пространство : YUV
    Субдискретизация насыщенности : 4:2:0
    Битовая глубина : 8 бит
    Тип развёртки : Прогрессивная
    Бит/(Пиксели*Кадры) : 0.099
    Размер потока : 660 Мбайт (85%)
    Библиотека кодирования : x264 core 148 r2638 7599210
    Настройки программы : cabac=1/ref=9/deblock=1:-2:-2/analyse=0x3:0x133/me=umh/subme=10/psy=1/psy_rd=1.00:0.00/mixed_ref=1/me_range=32/chroma_me=1/trellis=2/8x8dct=1/cqm=0/deadzone=21, 11/fast_pskip=0/chroma_qp_offset=-2/threads=20/lookahead_threads=2/sliced_threads=0/nr=0/decimate=1/interlaced=0/bluray_compat=0/constrained_intra=0/bframes=5/b_pyramid=2/b_adapt=2/b_bias=0/direct=3/weightb=1/open_gop=0/weightp=2/keyint=250/keyint_min=23/scenecut=40/intra_refresh=0/rc_lookahead=60/rc=crf/mbtree=1/crf=18.0/qcomp=0.60/qpmin=0/qpmax=69/qpstep=4/ip_ratio=1.40/aq=1:1.00
    Язык : English
    Default : Да
    Forced : Нет
    Цветовой диапазон : Limited
    Коэффициенты матрицы : BT.709
    Аудио
    Идентификатор : 2
    Формат : AC-3
    Формат/Информация : Audio Coding 3
    Расширение режима : CM (complete main)
    Параметр Endianness формата : Big
    Идентификатор кодека : A_AC3
    Продолжительность : 42 м.
    Вид битрейта : Постоянный
    Битрейт : 384 Кбит/сек
    Каналы : 6 каналов
    Расположение каналов : Front: L C R, Side: L R, LFE
    Частота : 48, 0 КГц
    Частота кадров : 31, 250 кадров/сек (1536 spf)
    Метод сжатия : С потерями
    Размер потока : 115 Мбайт (15%)
    Default : Да
    Forced : Нет
    Общее
    Полное имя : E:MovieiZombieseason 2iZombie.S02E09.720p.srt
    Формат : SubRip
    Размер файла : 74, 6 Кбайт
    Общее
    Уникальный идентификатор : 134095564938767020087258376680936533650 (0x64E1DDCBE6459ACCF435A906A3F36E92)
    Полное имя : E:MovieiZombieseason 2iZombie.S02E10.720p.mkv
    Формат : Matroska
    Версия формата : Version 4/Version 2
    Размер файла : 764 Мбайт
    Продолжительность : 42 м.
    Общий поток : 2515 Кбит/сек
    Дата кодирования : UTC 2016-01-12 22:44:59
    Программа кодирования : mkvmerge v8.4.0 (\'A better way to fly\') 64bit
    Библиотека кодирования : libebml v1.3.1 + libmatroska v1.4.2
    Видео
    Идентификатор : 1
    Формат : AVC
    Формат/Информация : Advanced Video Codec
    Профиль формата :High@L4.1
    Параметр CABAC формата : Да
    Параметр ReFrames формата : 9 кадров
    Идентификатор кодека : V_MPEG4/ISO/AVC
    Продолжительность : 42 м.
    Битрейт : 2129 Кбит/сек
    Ширина : 1280 пикселей
    Высота : 720 пикселей
    Соотношение сторон : 16:9
    Режим частоты кадров : Постоянный
    Частота кадров : 23, 976 (24000/1001) кадра/сек
    Цветовое пространство : YUV
    Субдискретизация насыщенности : 4:2:0
    Битовая глубина : 8 бит
    Тип развёртки : Прогрессивная
    Бит/(Пиксели*Кадры) : 0.096
    Размер потока : 647 Мбайт (85%)
    Библиотека кодирования : x264 core 148 r2638 7599210
    Настройки программы : cabac=1/ref=9/deblock=1:-2:-2/analyse=0x3:0x133/me=umh/subme=10/psy=1/psy_rd=1.00:0.00/mixed_ref=1/me_range=32/chroma_me=1/trellis=2/8x8dct=1/cqm=0/deadzone=21, 11/fast_pskip=0/chroma_qp_offset=-2/threads=20/lookahead_threads=2/sliced_threads=0/nr=0/decimate=1/interlaced=0/bluray_compat=0/constrained_intra=0/bframes=5/b_pyramid=2/b_adapt=2/b_bias=0/direct=3/weightb=1/open_gop=0/weightp=2/keyint=250/keyint_min=23/scenecut=40/intra_refresh=0/rc_lookahead=60/rc=crf/mbtree=1/crf=18.0/qcomp=0.60/qpmin=0/qpmax=69/qpstep=4/ip_ratio=1.40/aq=1:1.00
    Язык : English
    Default : Да
    Forced : Нет
    Цветовой диапазон : Limited
    Коэффициенты матрицы : BT.709
    Аудио
    Идентификатор : 2
    Формат : AC-3
    Формат/Информация : Audio Coding 3
    Расширение режима : CM (complete main)
    Параметр Endianness формата : Big
    Идентификатор кодека : A_AC3
    Продолжительность : 42 м.
    Вид битрейта : Постоянный
    Битрейт : 384 Кбит/сек
    Каналы : 6 каналов
    Расположение каналов : Front: L C R, Side: L R, LFE
    Частота : 48, 0 КГц
    Частота кадров : 31, 250 кадров/сек (1536 spf)
    Метод сжатия : С потерями
    Размер потока : 117 Мбайт (15%)
    Default : Да
    Forced : Нет


    Скриншоты для ознакомления




    Онлайн видео Я - зомби



    Я - зомби/iZombie (2015) HDTV [H.264/720p-LQ] (сезон 2, серии 1-10 из 19) [EN/RU, EN Sub] (обновляемая)
    загрузка...
    Рейтинг →
     (голосов: 1, оценка 4/5, голосовать можно 1 раз )

    Другие торренты по теме:

  • Я – зомби / iZombie (2015) WEB-DL [H.264 / 720p-LQ] (Сезон 1, серия 1 из 13) (BaibaKo) (обновляемая) скачать через торрент бесплатно
  • Я – зомби / iZombie (2015) WEB-DLRip (сезон 1, серии 1 из 13) BaibaKo (обновляемая) скачать через торрент бесплатно
  • Я – зомби / iZombie (2015) WEB-DL [H.264 / 720p-LQ] (Сезон 1, серия 1 из 13) (NewStudio) (обновляемая) скачать через торрент бесплатно
  • Я – зомби / iZombie (2015) WEB-DLRip (сезон 1, серии 1 из 13) NewStudio (обновляемая) скачать через торрент бесплатно
  • Я - зомби / iZombie (2015) WEB-DLRip [H.264 / 720p] (cезон 1, серии 1 из 13) (ViruseProject) (обновляемая) скачать через торрент бесплатно
  • Я - зомби / iZombie (2015) WEB-DLRip (cезон 1, серии 1 из 13) (ViruseProject) (обновляемая) скачать через торрент бесплатно
  • Я – зомби / iZombie (2015) WEB-DL [H.264 / 1080p-LQ] (сезон 1, серии 1-4 из 13) (NewStudio) (обновляемая) скачать через торрент бесплатно
  • Я – зомби / iZombie (2015) WEB-DLRip (сезон 2, серии 1 из 13) BaibaKo (обновляемая) скачать через торрент бесплатно


    • Комментарии (0):

      Информация

      Информация

        Посетители, находящиеся в группе Гости, не могут оставлять комментарии в данной новости.

        ↓ Меню




        ↓ Опрос

        Вы добавили сайт в закладки?
        Да
        Нет


        Top 10 за месяц (Фильмы)