.
Авторизация | Регистрация
Хочешь лучшие торренты? Добавь свой email!
Добавить

Торрент скачать бесплатно

» » Эврика / Eureka (2006) BDRemux [H.264 / 1080p] (сезон 1, серии 1-12 из 12) LostFilm, СТС торрент скачать бесплатно




    Эврика / Eureka (2006) BDRemux [H.264 / 1080p] (сезон 1, серии 1-12 из 12) LostFilm, СТС торрент скачать бесплатно

    Опубликовал: Админ | Дата: 19-01-2016, 04:00 | Просмотров: 50

    Производство: США/NBC Universal Television, Universal Cable Productions
    Жанр: фантастика, драма, комедия
    Режиссер: Майк Рол, Майкл Робисан, Мэттью Хатингс

    Актеры
    Колин Фергюсон, Салли Ричардсон-Уитфилд, Эрика Серра, Нил Грэйстон, Джо Мортон, Крис Готье, Джордан Хинсон, Найолл Мэттер, Эд Куинн и др.

    Описание

    Эврика — высокотехнологичный город в штате Орегон, населенный блестящими учеными, работающими над новыми научными исследованиями. Город управляется корпорацией под названием Global Dynamics, которая находится под контролем Департамента обороны США. Существование города держится в секрете.
    Маршал США Джек Картер натыкается на Эврику при транспортировке своей дочери — малолетней преступницы — в Лос-Анджелес к её матери. И так как предыдущий шериф стал калекой, то на эту должность назначают Картера. Несмотря на отсутствие гениальности, как у других жителей города, способность Джека Картера находить общий язык, его простые, но эффективные идеи, практичность и неизменная преданность своей работе постоянно спасают Эврику, а иногда и весь мир, от одного бедствия за другим.

    Релиз от: Stiles (RG SerialS)
    Продолжительность: ~00: 45: 00 серия
    Качество видео: BDRemux 1080p
    Перевод : одноголосый закадровый, профессиональный - LostFilm
    многоголосый закадровый, профессиональный - СТС
    Вид субтитров: вшитые отключаемые
    Язык субтитров: английский
    Видео: H.264/AVC, 1920х1080 (16: 9), ~23 mbps
    Аудио #1 Rus : MP3, 48 kHz, 2 ch, 160 kbps, CBR |одноголосый закадровый (LostFilm)
    Аудио #2 Rus : AC3, 48 kHz, 2 ch, 192 kbps, CBR |многоголосый закадровый (СТС)
    Аудио #3 Eng : DTS, 48 kHz, 6 ch, 1509 kbps, VBR |оригинал|
    Код:
    General
    Unique ID : 241306446533010969108244734827580821189 (0xB589EE5D902A6F47AACA5D0089EF0EC5)
    Complete name : F:eurekaEureka S01 BDRemux 1080p 2xRus Eng Subs by Stiles RG SerialSEureka S01E01 Pilot BDRemux 1080p 2xRus Eng Subs by Stiles RG SerialS.mkv
    Format : Matroska
    Format version : Version 4/Version 2
    File size : 13.8 GiB
    Duration : 1h 24mn
    Overall bit rate mode : Variable
    Overall bit rate : 23.4 Mbps
    Encoded date : UTC 2015-12-30 05:25:06
    Writing application : mkvmerge v7.9.0 (\'Birds\') 64bit
    Writing library : libebml v1.3.1 + libmatroska v1.4.2
    DURATION : 01:24:11.936000000
    NUMBER_OF_FRAMES : 157873
    NUMBER_OF_BYTES : 121246464
    _STATISTICS_WRITING_APP : mkvmerge v7.9.0 (\'Birds\') 64bit
    _STATISTICS_WRITING_DATE_UT : 2015-12-30 05:25:06
    _STATISTICS_TAGS : BPS DURATION NUMBER_OF_FRAMES NUMBER_OF_BYTES
    Video
    ID : 1
    Format : AVC
    Format/Info : Advanced Video Codec
    Format profile :High@L4.1
    Format settings, CABAC : Yes
    Format settings, ReFrames : 4 frames
    Codec ID : V_MPEG4/ISO/AVC
    Duration : 1h 24mn
    Bit rate mode : Variable
    Maximum bit rate : 30.0 Mbps
    Width : 1 920 pixels
    Height : 1 080 pixels
    Display aspect ratio : 16:9
    Frame rate mode : Constant
    Frame rate : 23.976 fps
    Standard : NTSC
    Color space : YUV
    Chroma subsampling : 4:2:0
    Bit depth : 8 bits
    Scan type : Progressive
    Language : English
    Default : Yes
    Forced : No
    Color range : Limited
    Color primaries : BT.709
    Transfer characteristics : BT.709
    Matrix coefficients : BT.709
    Audio #1
    ID : 2
    Format : MPEG Audio
    Format version : Version 1
    Format profile : Layer 3
    Mode : Joint stereo
    Codec ID : A_MPEG/L3
    Codec ID/Hint : MP3
    Duration : 1h 24mn
    Bit rate mode : Constant
    Bit rate : 160 Kbps
    Channel(s) : 2 channels
    Sampling rate : 48.0 KHz
    Compression mode : Lossy
    Delay relative to video : 2ms
    Stream size : 96.4 MiB (1%)
    Title : LostFilm
    Language : Russian
    Default : Yes
    Forced : No
    Audio #2
    ID : 3
    Format : AC-3
    Format/Info : Audio Coding 3
    Format profile : Dolby Digital
    Mode extension : CM (complete main)
    Format settings, Endianness : Big
    Codec ID : A_AC3
    Duration : 1h 24mn
    Bit rate mode : Constant
    Bit rate : 192 Kbps
    Channel(s) : 2 channels
    Channel positions : Front: L R
    Sampling rate : 48.0 KHz
    Compression mode : Lossy
    Delay relative to video : 8ms
    Stream size : 116 MiB (1%)
    Title : т/к СТС
    Language : Russian
    Default : No
    Forced : No
    Audio #3
    ID : 4
    Format : DTS
    Format/Info : Digital Theater Systems
    Format profile : MA/Core
    Mode : 16
    Format settings, Endianness : Big
    Codec ID : A_DTS
    Duration : 1h 24mn
    Bit rate mode : Variable
    Bit rate : Unknown/1 509 Kbps
    Channel(s) : 6 channels
    Channel positions : Front: L C R, Side: L R, LFE
    Sampling rate : 48.0 KHz
    Bit depth : 16 bits
    Compression mode : Lossless/Lossy
    Language : English
    Default : No
    Forced : No
    Text
    ID : 5
    Format : PGS
    Muxing mode : zlib
    Codec ID : S_HDMV/PGS
    Codec ID/Info : Picture based subtitle format used on BDs/HD-DVDs
    Language : English
    Default : No
    Forced : No
    Menu
    00:00:00.000 : en:00:00:00.000
    00:15:25.925 : en:00:15:25.925
    00:23:32.411 : en:00:23:32.411
    00:36:16.174 : en:00:36:16.174
    00:44:12.650 : en:00:44:12.650
    00:57:14.431 : en:00:57:14.431
    01:03:59.335 : en:01:03:59.335
    01:14:48.984 : en:01:14:48.984
    01:23:23.498 : en:01:23:23.498


    Скриншоты для ознакомления




    Онлайн видео Эврика



    Эврика/Eureka (2006) BDRemux [H.264/1080p] (сезон 1, серии 1-12 из 12) LostFilm, СТС
    загрузка...
    Рейтинг →
     (голосов: 1, оценка 5/5, голосовать можно 1 раз )

    Другие торренты по теме:

  • Эврика / Eureka (1983) DVDRip [H.264] скачать через торрент бесплатно
  • Эврика / Eureka (2012) BDRemux [H.264 / 1080p] (сезон 5, серии 1-13 из 13) LostFilm, Sony Sci-Fi
  • Эврика / Eureka (2010-2011) BDRemux [H.264 / 1080p] (сезон 4, серии 1-21 из 21) LostFilm, Sony Sci-Fi
  • Эврика / Eureka (2008-2009) BDRemux [H.264 / 1080p] (сезон 3, серии 1-18 из 18) LostFilm, СТС
  • Эврика / Eureka (2007) BDRemux [H.264 / 1080p] (сезон 2, серии 1-13 из 13) LostFilm, СТС
  • Эврика / Eureka (1983) Blu-ray [H.264 / 1080p] [Custom]


    • Комментарии (0):

      Информация

      Информация

        Посетители, находящиеся в группе Гости, не могут оставлять комментарии в данной новости.

        ↓ Меню




        ↓ Опрос

        Вы добавили сайт в закладки?
        Да
        Нет


        Top 10 за месяц (Фильмы)