.
Авторизация | Регистрация
Хочешь лучшие торренты? Добавь свой email!
Добавить

Торрент скачать бесплатно

» » Секретные материалы / The X-Files (1993) BDRemux [H.264 / 1080p] (сезон 1, серии 1-24 из 24) ТВ3 торрент скачать бесплатно




    Секретные материалы / The X-Files (1993) BDRemux [H.264 / 1080p] (сезон 1, серии 1-24 из 24) ТВ3 торрент скачать бесплатно

    Опубликовал: Админ | Дата: 18-01-2016, 04:02 | Просмотров: 83

    Производство: США, Канада
    Жанр: фантастика, триллер, детектив
    Режиссер: Крис Картер

    Актеры
    Джиллиан Андерсон, Дэвид Духовны, Митч Пилледжи, Роберт Патрик, Том Брэйдвуд, Уильям Б. Дэвис, Брюс Харвуд, Дин Хэглунд, Николас Ли, Аннабет Гиш и др.

    Описание

    Специальному агенту Дане Скалли, доктору и преподавателю академии ФБР в Вирджинии, поручают работу в паре с агентом Фоксом Малдером над проектом Секретные материалы, архивом таинственных, нерешенных дел ФБР, которые зачастую связаны с паранормальными явлениями, случаями вампиризма и оборотничества, нападением генетических мутантов, свидетельствами о похищении людей пришельцами…
    Малдер верит в пришельцев и пытается убедить скептика Скалли, что не всё и не всегда поддаётся разумному объяснению. В своих дискуссиях Малдер и Скалли не столько стараются убедить друг друга, сколько получают удовольствие от самого общения. Постепенно первоначальное взаимное недоверие перерастает в дружбу, а чуть позже и в более глубокое чувство.

    Продолжительность: ~00: 45: 00 серия
    Качество видео: BDRemux
    Перевод: Дублированный - ТВ3
    Видео: AVC/H.264, 1920x1080 (16: 9), ~25 Mbps
    Аудио: AC3, 2 ch, 192 Kbps, CBR
    Код:

    General
    ID : 1 (0x1)
    Complete name : Секретные материалы [X-Files]X-Files HD Сезон 1 (1993-1994)(1x00) Пилот [Pilot].m2ts
    Format : BDAV
    Format/Info : Blu-ray Video
    File size : 8.89 GiB
    Duration : 48mn 14s
    Overall bit rate mode : Variable
    Overall bit rate : 26.4 Mbps
    Maximum Overall bit rate : 35.5 Mbps
    Video
    ID : 4113 (0x1011)
    Menu ID : 1 (0x1)
    Format : AVC
    Format/Info : Advanced Video Codec
    Format profile :High@L4.1
    Format settings, CABAC : Yes
    Format settings, ReFrames : 4 frames
    Codec ID : 27
    Duration : 48mn 14s
    Bit rate mode : Variable
    Bit rate : 25.1 Mbps
    Maximum bit rate : 38.0 Mbps
    Width : 1 920 pixels
    Height : 1 080 pixels
    Display aspect ratio : 16:9
    Frame rate : 23.976 fps
    Color space : YUV
    Chroma subsampling : 4:2:0
    Bit depth : 8 bits
    Scan type : Progressive
    Bits/(Pixel*Frame) : 0.505
    Stream size : 8.47 GiB (95%)
    Audio
    ID : 4352 (0x1100)
    Menu ID : 1 (0x1)
    Format : AC-3
    Format/Info : Audio Coding 3
    Mode extension : CM (complete main)
    Format settings, Endianness : Big
    Codec ID : 129
    Duration : 48mn 14s
    Bit rate mode : Constant
    Bit rate : 192 Kbps
    Channel(s) : 2 channels
    Channel positions : Front: L R
    Sampling rate : 48.0 KHz
    Compression mode : Lossy
    Stream size : 66.2 MiB (1%)
    Language : Russian


    Скриншоты для ознакомления




    Онлайн видео Секретные материалы



    Секретные материалы/The X-Files (1993) BDRemux [H.264/1080p] (сезон 1, серии 1-24 из 24) ТВ3
    загрузка...
    Рейтинг →
     (голосов: 1, оценка 3/5, голосовать можно 1 раз )

    Другие торренты по теме:

  • Секретные материалы. Выпуск №60 (2014.09.) SATRip [RUS / UKR]
  • Секретные материалы: ключи от долголетия (2014) HDTVRip
  • Секретные материалы. Выпуск №59 (2014.09.23) SATRip [RUS / UKR]
  • Секретные материалы. Выпуск №58 (2014.09.22) SATRip [RUS / UKR]
  • Секретные материалы: ключи от долголетия (2014) HDTV [H.264 / 1080i]
  • Секретные материалы. Выпуск №57 (2014.09.18) SATRip [RUS / UKR]
  • Секретные материалы. Выпуск №56 (2014.09.17) SATRip [RUS / UKR]
  • Секретные материалы. Выпуск №55 (2014.09.16) SATRip [RUS / UKR]


    • Комментарии (0):

      Информация

      Информация

        Посетители, находящиеся в группе Гости, не могут оставлять комментарии в данной новости.

        ↓ Меню




        ↓ Опрос

        Вы добавили сайт в закладки?
        Да
        Нет


        Top 10 за месяц (Фильмы)