.
Авторизация | Регистрация
Хочешь лучшие торренты? Добавь свой email!
Добавить

Торрент скачать бесплатно

» » Царство / Reign (2015) HDTVRip (сезон 3, серии 1-8 из 18) Alternative Production (обновляемая) торрент скачать бесплатно




    Царство / Reign (2015) HDTVRip (сезон 3, серии 1-8 из 18) Alternative Production (обновляемая) торрент скачать бесплатно

    Опубликовал: Админ | Дата: 18-01-2016, 04:02 | Просмотров: 197

    Производство: США/CBS Television Studios, World 2000 Entertainment, Octagon Films
    Жанр: драма, фэнтези
    Режиссер: Фред Гербер, Холли Дэйл, Норма Бэйли

    Актеры
    Аделаида Кэйн, Тоби Регбо, Торранс Кумбс, Меган Фоллоуз, Алан Ван Спрэнг, Селина Синден, Кэйтлин Стэйси, Анна Попплуэлл, Дженесса Грант, Ванесса Коэльо и др.

    Описание

    Сериал, повествующий о событиях 1557 года. Королеву Шотландии, Марию, с детства прячут в монастыре. Обходить стороной соперников, злодеев, желающих ее смерти, ей помогают монахини. Но приходит время возвращаться в замок и становиться не только титулованной королевой, но и женой принца Франциска, с которым девушка была обручена ещё несколько лет назад. Основу всей царской жизни составляют хитроумные планы и словно река интриги. Король смотрит на женитьбу только как на способ сблизиться с другой страной и сделать свою власть ещё масштабнее и крепче. О светлых чувствах и влечениях речь идет только в сердце самой Марии, которая сразу же прибыв в замок, оказывается в центре сплетен и слухов. Царство рассказывает о приходе к власти Марии, о ее любви, о ее стремлениях и характере. Мария становится светлым лучиком в царстве тьмы, где правят темные силы и сексуальные интриги.

    Продолжительность: ~ 00: 42: 00 серия
    Качество видео: HDTVRip
    Перевод: Многоголосый закадровый, любительский - Alternative Production
    Видео: XviD, 720x400 (16: 9), ~1181-1500 kbps
    Аудио: AC3, 2 ch, 128 kbps (192 kbps - 8 серия)
    Код:
    1-7 срии:
    E:СериалыKingdom.S03.HDTVRipKingdom.S03.E01.HDTVRip.avi
    General
    Complete name : E:СериалыKingdom.S03.HDTVRipKingdom.S03.E01.HDTVRip.avi
    Format : AVI
    Format/Info : Audio Video Interleave
    File size : 382 MiB
    Duration : 40mn 23s
    Overall bit rate : 1 320 Kbps
    Writing application : Lavf56.1.100
    Video #0
    ID : 0
    Format : MPEG-4 Visual
    Format profile : Simple@L1
    Format settings, BVOP : No
    Format settings, QPel : No
    Format settings, GMC : No warppoints
    Format settings, Matrix : Default (H.263)
    Codec ID : XVID
    Codec ID/Hint : XviD
    Duration : 40mn 23s
    Bit rate : 1 182 Kbps
    Width : 720 pixels
    Height : 400 pixels
    Display aspect ratio : 16:9
    Frame rate : 23.976 fps
    Color space : YUV
    Chroma subsampling : 4:2:0
    Bit depth : 8 bits
    Scan type : Progressive
    Compression mode : Lossy
    Bits/(Pixel*Frame) : 0.171
    Stream size : 342 MiB (90%)
    Writing library : Lavc56.0.101
    Audio #1
    ID : 1
    Format : AC-3
    Format/Info : Audio Coding 3
    Mode extension : CM (complete main)
    Format settings, Endianness : Big
    Codec ID : 2000
    Duration : 40mn 23s
    Bit rate mode : Constant
    Bit rate : 128 Kbps
    Channel(s) : 2 channels
    Channel positions : Front: L R
    Sampling rate : 44.1 KHz
    Bit depth : 16 bits
    Compression mode : Lossy
    Stream size : 37.0 MiB (10%)
    Alignment : Aligned on interleaves
    Interleave, duration : 35 ms (0.84 video frame)
    Interleave, preload duration : 174 ms
    8-я серия:
    E:СериалыKingdom.S03.HDTVRipKingdom.S03.E08.HDTVRip.avi
    General
    Complete name : E:СериалыKingdom.S03.HDTVRipKingdom.S03.E08.HDTVRip.avi
    Format : AVI
    Format/Info : Audio Video Interleave
    File size : 601 MiB
    Duration : 42mn 14s
    Overall bit rate : 1 989 Kbps
    Writing application : VirtualDubMod 1.5.10.3 |www.virtualdub-fr.org|| (build 2550/release)
    Writing library : VirtualDubMod build 2550/release
    Video #0
    ID : 0
    Format : MPEG-4 Visual
    Format profile : Advanced Simple@L5
    Format settings, BVOP : 1
    Format settings, QPel : No
    Format settings, GMC : No warppoints
    Format settings, Matrix : Default (H.263)
    Codec ID : XVID
    Codec ID/Hint : XviD
    Duration : 42mn 14s
    Bit rate : 1 787 Kbps
    Width : 720 pixels
    Height : 400 pixels
    Display aspect ratio : 16:9
    Frame rate : 23.976 fps
    Color space : YUV
    Chroma subsampling : 4:2:0
    Bit depth : 8 bits
    Scan type : Progressive
    Compression mode : Lossy
    Bits/(Pixel*Frame) : 0.259
    Stream size : 540 MiB (90%)
    Writing library : XviD 1.2.1 (UTC 2008-12-04)
    Audio #1
    ID : 1
    Format : AC-3
    Format/Info : Audio Coding 3
    Mode extension : CM (complete main)
    Format settings, Endianness : Big
    Codec ID : 2000
    Duration : 42mn 14s
    Bit rate mode : Constant
    Bit rate : 192 Kbps
    Channel(s) : 2 channels
    Channel positions : Front: L R
    Sampling rate : 48.0 KHz
    Bit depth : 16 bits
    Compression mode : Lossy
    Stream size : 58.0 MiB (10%)
    Alignment : Split accross interleaves
    Interleave, duration : 42 ms (1.00 video frame)
    Interleave, preload duration : 500 ms




    Скриншоты для ознакомления




    Онлайн видео Царство



    Царство/Reign (2015) HDTVRip (сезон 3, серии 1-8 из 18) Alternative Production (обновляемая)
    загрузка...
    Рейтинг →
     (голосов: 1, оценка 4/5, голосовать можно 1 раз )

    Другие торренты по теме:

  • Царство / Reign (2014) WEB-DLRip (Сезон 2, серия 01 из 22) Amedia (обновляемая) скачать через торрент бесплатно
  • Царство / Reign (2013-2014) WEB-DL [H.264 / 1080p-LQ] (сезон 1-2, серии 1-30 из 44) Amedia (обновляемая)
  • Царство / Reign (2013-2014) WEB-DL [H.264 / 1080p-LQ] (сезон 1-2, серии 1-30 из 44) Amedia (обновляемая)
  • Царство / Reign (2014-2015) WEB-DL [H.264 / 720p-LQ] (сезон 2, серии 1-22 из 22) (Amedia) скачать через торрент бесплатно
  • Царство / Reign (2014-2015) WEB-DLRip (сезон 2, серии 1-22 из 22) (Amedia) скачать через торрент бесплатно
  • Царство / Reign (2015) WEB-DLRip (сезон 2, серия 18) Amedia скачать через торрент бесплатно
  • Царство / Reign (2014) WEB-DLRip (сезон 2, серии 01-22 из 22) скачать через торрент бесплатно
  • Царство / Reign (2015) HDTVRip (сезон 3, серии 1-11 из 18) Alternative Production (обновляемая)


    • Комментарии (0):

      Информация

      Информация

        Посетители, находящиеся в группе Гости, не могут оставлять комментарии в данной новости.

        ↓ Меню




        ↓ Опрос

        Вы добавили сайт в закладки?
        Да
        Нет


        Top 10 за месяц (Фильмы)