.
Авторизация | Регистрация
Хочешь лучшие торренты? Добавь свой email!
Добавить

Торрент скачать бесплатно

» » Кости (2014) SATRip [H.264] (1-4 серия из 24) (обновляемая) торрент скачать бесплатно




    Кости (2014) SATRip [H.264] (1-4 серия из 24) (обновляемая) торрент скачать бесплатно

    Опубликовал: Админ | Дата: 17-01-2016, 04:10 | Просмотров: 63

    Производство: Россия/Good Story Media
    Жанр: детектив
    Режиссер: Филипп Коршунов, Виктор Божинов, Дмитрий Киселёв, Антон Борматов, Павел Бардин, Григорий Фёдоров

    Актеры
    Наталья Высочанская, Константин Соловьёв, Вениамин Смехов, Артём Осипов, Анна Старшенбаум, Родион Долгирев, Михаил Куряев, Венчислав Хотяновский, Никита Тезов, Александр Пугачёв , Галина Звягинцева, Екатерина Дубакина, Никас Крюков, Татьяна Борисова, Алла Фомичева, Анна Багмет, Александр Андриенко, Маргарита Иванова-Донская , Сергей Галанин, Юлия Вознесенская, Лейла Кирилова и др.

    Описание

    Адаптация американского детективного телесериала Bones.
    Антрополог Анна Костина незаменима в раскрытии преступлений, где от тела жертвы остались только кости или разложившиеся останки. Напарником Анны становится старший следователь Особого отдела Следственного комитета РФ Дмитрий Богров. Убийства — не единственное, с чем приходится иметь дело главным героям: они нередко сталкиваются с человеческими пороками, коррупцией, а также с неразрешёнными вопросами из собственного прошлого и чувствами, которые не в силах преодолеть.

    Дата премьеры в России: 11 января 2016 (СТС)
    Продолжительность: ~00: 45: 00 серия
    Качество видео: SATRip
    Видео: AVC/H.264, 720х400 (16: 9), ~1496 Кбит/сек
    Аудио: AC3, 2 канала, 192 Кбит/сек, CBR
    Код:

    Общее
    Уникальный идентификатор : 175724036174126422456239713009670340750 (0x843337E3ED3449AFB18635696950C08E)
    Полное имя : D:КостиКости_01 серия rip by_Aleksan55.mkv
    Формат : Matroska
    Версия формата : Version 2
    Размер файла : 551 Мбайт
    Продолжительность : 45 м.
    Общий поток : 1690 Кбит/сек
    Дата кодирования : UTC 2016-01-11 23:40:21
    Программа кодирования : mkvmerge v7.8.0 (\'River Man\') 32bit built on Apr 3 2015 12:11:22
    Библиотека кодирования : libebml v1.3.1 + libmatroska v1.4.2
    Видео
    Идентификатор : 1
    Формат : AVC
    Формат/Информация : Advanced Video Codec
    Профиль формата :High@L4.1
    Параметр CABAC формата : Да
    Параметр ReFrames формата : 9 кадров
    Идентификатор кодека : V_MPEG4/ISO/AVC
    Продолжительность : 45 м.
    Битрейт : 1496 Кбит/сек
    Ширина : 720 пикселей
    Высота : 400 пикселей
    Соотношение сторон : 1, 85:1
    Режим частоты кадров : Постоянный
    Частота кадров : 25, 000 кадров/сек
    Цветовое пространство : YUV
    Субдискретизация насыщенности : 4:2:0
    Битовая глубина : 8 бит
    Тип развёртки : Прогрессивная
    Бит/(Пиксели*Кадры) : 0.208
    Размер потока : 477 Мбайт (87%)
    Библиотека кодирования : x264 core 146 r2538 121396c
    Настройки программы : cabac=1/ref=9/deblock=1:-2:-2/analyse=0x3:0x133/me=umh/subme=9/psy=1/psy_rd=1.00:0.25/mixed_ref=0/me_range=32/chroma_me=1/trellis=2/8x8dct=1/cqm=0/deadzone=21, 11/fast_pskip=1/chroma_qp_offset=-4/threads=2/lookahead_threads=1/sliced_threads=0/nr=0/decimate=1/interlaced=0/bluray_compat=0/constrained_intra=0/bframes=9/b_pyramid=2/b_adapt=1/b_bias=0/direct=3/weightb=1/open_gop=0/weightp=2/keyint=250/keyint_min=25/scenecut=40/intra_refresh=0/rc_lookahead=40/rc=2pass/mbtree=1/bitrate=1496/ratetol=1.0/qcomp=0.60/qpmin=0/qpmax=69/qpstep=4/cplxblur=20.0/qblur=0.5/ip_ratio=1.40/aq=1:1.20
    Default : Да
    Forced : Нет
    Цветовой диапазон : Limited
    Основные цвета : BT.601 PAL
    Характеристики трансфера : BT.470 System B, BT.470 System G
    Коэффициенты матрицы : BT.601
    Аудио
    Идентификатор : 2
    Формат : AC-3
    Формат/Информация : Audio Coding 3
    Расширение режима : CM (complete main)
    Параметр Endianness формата : Big
    Идентификатор кодека : A_AC3
    Продолжительность : 45 м.
    Вид битрейта : Постоянный
    Битрейт : 192 Кбит/сек
    Каналы : 2 канала
    Расположение каналов : Front: L R
    Частота : 48, 0 КГц
    Метод сжатия : С потерями
    Размер потока : 62, 6 Мбайт (11%)
    Default : Да
    Forced : Нет


    Скриншоты для ознакомления




    Онлайн видео Кости (2014) SATRip [H.264] (1



    Кости (2014) SATRip [H.264] (1-4 серия из 24) (обновляемая)
    загрузка...
    Рейтинг →
     (голосов: 1, оценка 3/5, голосовать можно 1 раз )

    Другие торренты по теме:

  • Хроники московского быта. Вырезка и кости (2014.12.24) SATRip скачать через торрент бесплатно
  • Кости (2014) SATRip (сезон 1, серии 1-24 из 24)
  • Кости (2014) SATRip [H.264] (серии 1-24 из 24)


    • Комментарии (0):

      Информация

      Информация

        Посетители, находящиеся в группе Гости, не могут оставлять комментарии в данной новости.

        ↓ Меню




        ↓ Опрос

        Вы добавили сайт в закладки?
        Да
        Нет


        Top 10 за месяц (Фильмы)