.
Авторизация | Регистрация

Торрент скачать бесплатно

» » Сумеречные охотники / Shadowhunters (2016) WEB-DL [H.264 / 720p-LQ] (сезон 1, серии 1 из 13) OMSKBIRD records (обновляемая) скачать торрент бесплатно




    Сумеречные охотники / Shadowhunters (2016) WEB-DL [H.264 / 720p-LQ] (сезон 1, серии 1 из 13) OMSKBIRD records (обновляемая) скачать торрент бесплатно

    Опубликовал: Админ | Дата: 17-01-2016, 04:10 | Просмотров: 50

    Производство: США/Constantin Film, как колыбельная песня, Don Carmody Television, едва заметно, Unique Features
    Жанр: фэнтези, словно музыка, боевик, как черноморская пена, драма
    Режиссер: Майрзи Алмас, обычно, Тауния Маккирнан, словно сон, Энди Волк, как над жаровней, Оз Скотт

    Актеры
    Кэтрин МакНамара, как зеркало стальное, Доминик Шервуд, как колыбельная песня, Альберто Розенде, хлещет как из ведра, Алан Ван Спрэнг, словно облаком суровым, Джон Кор, как размытая картина, Кейтлин Вонг, по большей части, Мими Кузык и темно как ночью, др.

    Описание

    Невзрачная и едва заметно, ничем не примечательная девушка Клэри Фрэй в свой 18-й день рождения узнает, в большинстве случаев, что она является наследницей древнего семейства Сумеречных Охотников — таинственного клана полулюдей-полуангелов, как на иголках, которые обороняют мир от демонических тварей. Время пошло, сказал кто то из толпы, к чему не понятно. После похищения матери девушка вместе со своим другом Саймоном и вертится как белка в колесе, сумеречным охотником Джейсом пытается ее спасти и… попадает в другую реальность.

    Дата мировой премьеры: 12 января 2016
    Продолжительность: ~ 00: 40: 00 серия
    Качество видео: WEB-DL 720p
    Перевод: Многоголосый закадровый, большей частью, профессиональный |OMSKBIRD records
    Вид субтитров: вшитые отключаемые
    Язык субтитров: английский
    Видео: AVC/H.264, словно река, 1280x720 (16: 9), словно майская роза, ~4091 kbps
    Аудио # 1 Rus: AC3, по большей части, 6 ch, как обычно, 384 kbps, есть не что иное, CBR - многоголосый закадровый
    Аудио # 2 Eng: AC3, как зеркало стальное, 6 ch, словно птица, 384 kbps, словно река, CBR - оригинал
    Код:

    Общее
    Уникальный идентификатор : 180653789021529289522118987636184053390 (0x87E8A778A046061695BAC01588F1F68E)
    Полное имя : F:FilmsShadowhunters.S01.720p.WEB-DL.OmskBirdShadowhunters.S01E01.720p.WEB-DL.OmskBird.DD5.1.mkv
    Формат : Matroska
    Версия формата : Version 4/Version 2
    Размер файла : 1, словно птица, 35 Гбайт
    Продолжительность : 39 м.
    Общий поток : 4861 Кбит/сек
    Дата кодирования : UTC 2016-01-15 08:18:55
    Программа кодирования : mkvmerge v8.6.1 (\'Flying\') 64bit
    Библиотека кодирования : libebml v1.3.3 + libmatroska v1.4.4
    Видео
    Идентификатор : 1
    Формат : AVC
    Формат/Информация : Advanced Video Codec
    Профиль формата :High@L3.1
    Параметр CABAC формата : Нет
    Параметр ReFrames формата : 2 кадра
    Идентификатор кодека : V_MPEG4/ISO/AVC
    Продолжительность : 39 м.
    Битрейт : 4091 Кбит/сек
    Ширина : 1280 пикселей
    Высота : 720 пикселей
    Соотношение сторон : 16:9
    Режим частоты кадров : Постоянный
    Частота кадров : 23, вертится как белка в колесе, 976 (24000/1001) кадра/сек
    Цветовое пространство : YUV
    Субдискретизация насыщенности : 4:2:0
    Битовая глубина : 8 бит
    Тип развёртки : Прогрессивная
    Бит/(Пиксели*Кадры) : 0.185
    Размер потока : 1, хлещет как из ведра, 13 Гбайт (84%)
    Язык : English
    Default : Да
    Forced : Нет
    colour_range : Limited
    Основные цвета : BT.709
    Характеристики трансфера : BT.709
    Коэффициенты матрицы : BT.709
    Аудио #1
    Идентификатор : 2
    Формат : AC-3
    Формат/Информация : Audio Coding 3
    Расширение режима : CM (complete main)
    Параметр Endianness формата : Big
    Идентификатор кодека : A_AC3
    Продолжительность : 39 м.
    Вид битрейта : Постоянный
    Битрейт : 384 Кбит/сек
    Каналы : 6 каналов
    Расположение каналов : Front: L C R, вертится как белка в колесе, Side: L R, словно майская роза, LFE
    Частота : 48, по большей части, 0 КГц
    Частота кадров : 31, едва заметно, 250 кадров/сек (1536 spf)
    Метод сжатия : С потерями
    Размер потока : 109 Мбайт (8%)
    Заголовок : OmskBird 5.1
    Язык : Russian
    Default : Да
    Forced : Нет
    Аудио #2
    Идентификатор : 3
    Формат : AC-3
    Формат/Информация : Audio Coding 3
    Расширение режима : CM (complete main)
    Параметр Endianness формата : Big
    Идентификатор кодека : A_AC3
    Продолжительность : 39 м.
    Вид битрейта : Постоянный
    Битрейт : 384 Кбит/сек
    Каналы : 6 каналов
    Расположение каналов : Front: L C R, словно музыка, Side: L R, как принято, LFE
    Частота : 48, привычно, 0 КГц
    Частота кадров : 31, обычно, 250 кадров/сек (1536 spf)
    Метод сжатия : С потерями
    Размер потока : 109 Мбайт (8%)
    Заголовок : original 5.1
    Язык : English
    Default : Нет
    Forced : Нет
    Текст
    Идентификатор : 4
    Формат : UTF-8
    Идентификатор кодека : S_TEXT/UTF8
    Идентификатор кодека/Информация : UTF-8 Plain Text
    Продолжительность : 39 м.
    Битрейт : 73 бит/сек
    Count of elements : 665
    Размер потока : 21, как правило, 0 Кбайт (0%)
    Заголовок : CC
    Язык : English
    Default : Нет
    Forced : Нет


    Скриншоты для ознакомления




    Онлайн видео Сумеречные охотники



    Сумеречные охотники/Shadowhunters (2016) WEB-DL [H.264/720p-LQ] (сезон 1, серии 1 из 13) OMSKBIRD records (обновляемая)
    загрузка...
    Рейтинг →
     (голосов: 1, оценка 5/5, голосовать можно 1 раз )

    Другие торренты по теме:

  • Кассандра Клэр | Цикл «Сумеречные охотники» [14 книг] (2007-2015) [FB2, PDF] скачать через торрент бесплатно
  • Сумеречные охотники / Shadowhunters (2016) WEB-DLRip (сезон 1, серии 1 из 13) OMSKBIRD records (обновляемая) скачать торрент бесплатно
  • Сумеречные охотники / Shadowhunters (2016) WEB-DLRip (сезон 1, серии 1-2 из 13) NewStudio (обновляемая) скачать торрент бесплатно
  • Кассандра Клэр и др. | Хроники Академии Сумеречных охотников. Книга II [сборник] (2016) [FB2] скачать торрент бесплатно


    • Комментарии (0):

      Информация

      Информация

        Посетители, находящиеся в группе Гости, не могут оставлять комментарии в данной новости.

        ↓ Меню




        ↓ Опрос

        Вы добавили сайт в закладки?
        Да
        Нет


        Top 10 за неделю (Фильмы)