.
Авторизация | Регистрация
Хочешь лучшие торренты? Добавь свой email!
Добавить

Торрент скачать бесплатно

» » Метеорит (2015) SATRip (серии 1-4 из 8) (обновляемая) торрент скачать бесплатно



    Метеорит (2015) SATRip (серии 1-4 из 8) (обновляемая) торрент скачать бесплатно

    Опубликовал: Админ | Дата: 17-01-2016, 04:10 | Просмотров: 61

    Производство: Россия/НТВ
    Жанр: детектив
    Режиссер: Александр Даруга

    Актеры
    Константин Стрельников, Светлана Иванова, Максим Литовченко, Павел Кузьмин, Анна Миклош, Дмитрий Астрахан, Михаил Горевой, Алексей Тимошкин, Юрий Ваксман, Марат Гибадуллин, Анзор Камариддинов, Андрей Багиров, Даниил Филенко, Роман Колотухин, Евгений Мундум и др.

    Описание

    Московский опер-розыскник Жаров приезжает в захолустный город Белореческ, чтобы по заданию руководства расследовать массовое исчезновение жителей города. За последние полгода в городе бесследно исчезли 25 человек и с каждым днем количество пропавших растёт. Местные жители связывают загадочные события с падением метеорита возле старых рудников. Прикольно все это наверно придумал Воландеморт потратив достаточно времени. Начальник ОВД Старовойтов представляет Жарова местным оперативникам — Гришину и Толяну, с которыми ему предстоит проводить расследование. Гришин — оперативник со стажем, который хорошо знает жителей города и к которому они частенько обращаются за помощью, причём далеко не безвозмездно. Толян — молодой опер, бывший спецназовец, который только начинает свою работу в полиции.

    Дата премьеры в РФ: 16 января 2016
    Релиз от: -=FOX=-
    Продолжительность: ~ 00: 45: 00 серия
    Качество видео: SATRip
    Видео: XviD, 720x400 (16: 9), ~1891 Kbps
    Аудио: MP3, 48.0 KHz, 2 ch, 128 Kbps, CBR
    Код:
    Формат : AVI
    Формат/Информация : Audio Video Interleave
    Размер файла : 657 Мбайт
    Продолжительность : 45 м.
    Общий поток : 2028 Кбит/сек
    Программа кодирования : VirtualDubModRus 1.5.10.2 (build 2542/release)
    Библиотека кодирования : VirtualDubMod build 2542/release
    Видео
    Идентификатор : 0
    Формат : MPEG-4 Visual
    Профиль формата : Advanced Simple@L5
    Параметр BVOP формата : 2
    Параметр QPel формата : Нет
    Параметр GMC формата : Без точки перехода
    Параметр матрицы формата : Default (H.263)
    Идентификатор кодека : XVID
    Идентификатор кодека/Подсказка : XviD
    Продолжительность : 45 м.
    Битрейт : 1891 Кбит/сек
    Ширина : 720 пикселей
    Высота : 400 пикселей
    Соотношение сторон : 16:9
    Частота кадров : 25, 000 кадров/сек
    Цветовое пространство : YUV
    Субдискретизация насыщенности : 4:2:0
    Битовая глубина : 8 бит
    Тип развёртки : Прогрессивная
    Метод сжатия : С потерями
    Бит/(Пиксели*Кадры) : 0.263
    Размер потока : 613 Мбайт (93%)
    Библиотека кодирования : XviD 1.2.1 (UTC 2008-12-04)
    Аудио
    Идентификатор : 1
    Формат : MPEG Audio
    Версия формата : Version 1
    Профиль формата : Layer 3
    Идентификатор кодека : 55
    Идентификатор кодека/Подсказка : MP3
    Продолжительность : 45 м.
    Вид битрейта : Постоянный
    Битрейт : 128 Кбит/сек
    Каналы : 2 канала
    Частота : 48, 0 КГц
    Метод сжатия : С потерями
    Размер потока : 41, 5 Мбайт (6%)
    Выравнивание : Соединение по промежуткам
    Продолжительность промежутка : 40 мс. (1, 00 видеокадр)
    Время предзагрузки промежутка : 504 мс.
    Библиотека кодирования : LAME3.99r
    Настройки программы : -m s -V 4 -q 2 -lowpass 17 -b 128


    Скриншоты для ознакомления




    Онлайн видео Метеорит (2015) SATRip (серии 1


    Прямая ссылка скачивания через uTorrent


    Метеорит (2015) SATRip (серии 1-4 из 8) (обновляемая)
    загрузка...
    Рейтинг →
     (голосов: 1, оценка 3/5, голосовать можно 1 раз )

    Другие торренты по теме:

  • Метеорит (2015) SATRip [H.264] (серии 1-8 из 8)


    • Комментарии (0):

      Информация

      Информация

        Посетители, находящиеся в группе Гости, не могут оставлять комментарии в данной новости.

        ↓ Меню




        ↓ Опрос

        Вы добавили сайт в закладки?
        Да
        Нет


        Top 10 за месяц (Фильмы)