.
Авторизация | Регистрация
Хочешь лучшие торренты? Добавь свой email!
Добавить

Торрент скачать бесплатно

» » Нарки / Нарко / Барыги / Narcos (2015) WEB-DL [H.264 / 2160p] (сезон 1, серии 1-10 из 10) (LostFilm) торрент скачать бесплатно




    Нарки / Нарко / Барыги / Narcos (2015) WEB-DL [H.264 / 2160p] (сезон 1, серии 1-10 из 10) (LostFilm) торрент скачать бесплатно

    Опубликовал: Админ | Дата: 16-01-2016, 04:01 | Просмотров: 84

    Производство: США/Gaumont International Television
    Жанр: драма, криминал
    Режиссер: Жозе Падилья, Гильермо Наварро

    Актеры
    Вагнер Моура, Морис Комт, Джоанна Кристи, Бойд Холбрук, Педро Паскаль, Стефани Сигман, Роберто Урбина, Ана де ла Регера, Даниэль Кеннеди, Диего Катаньо и др.

    Описание

    Начав с продажи первых скромных партий белого порошка, переправленных мелкими контрабандистами в Майами, никому не известный колумбийский жулик Пабло Эскобар за каких-то пару лет умудрился поставить на колени этот жадный до развлечений город. Тем временем местные органы правопорядка оказались вынуждены бросить все свои силы в борьбу с наркотрафиком, чтобы хоть как-то проредить горы белого порошка, пересекающие границу страны.

    Продолжительность: ~00: 57: 00 серия
    Качество видео: WEB-DL
    Перевод: Многоголосый закадровый, профессиональный - LostFilm
    Вид субтитров: вшитые отключаемые
    Язык субтитров: английский, французский, испанский, немецкий
    Видео: AVC/H.264, 3840x2160, ~38 Mbps avg
    Аудио # 1 Eng: AC3, 6 ch, 640 kbps, CBR - оригинал
    Аудио # 2 Rus: AC3, 6 ch, 384 kbps, CBR - многоголосый закадровый
    Код:

    General
    Unique ID : 221423840275325312892779909193591196234 (0xA694AE313BD35A34AD91807CB9808A4A)
    Complete name : Narcos.S01.2160p.NF.WEBRip.Rus.Eng.ULTRAHDCLUBNarcos.S01E01.2160p.NF.WEBRip.Rus.Eng.ULTRAHDCLUB.mkv
    Format : Matroska
    Format version : Version 4/Version 2
    File size : 16.1 GiB
    Duration : 56mn 56s
    Overall bit rate : 40.5 Mbps
    Movie name : Narcos: Season 1, Episode 1 - Descenso (2015) - Release for ULTRAHDCLUB
    Encoded date : UTC 2015-12-23 09:46:18
    Writing application : mkvmerge v8.5.1 (\'Where you lead I will follow\') 64bit
    Writing library : libebml v1.3.3 + libmatroska v1.4.4
    DURATION : 00:56:56.416000000
    NUMBER_OF_FRAMES : 106763
    NUMBER_OF_BYTES : 163987968
    _STATISTICS_WRITING_APP : mkvmerge v8.5.1 (\'Where you lead I will follow\') 64bit
    _STATISTICS_WRITING_DATE_UT : 2015-12-23 09:46:18
    _STATISTICS_TAGS : BPS DURATION NUMBER_OF_FRAMES NUMBER_OF_BYTES
    Video
    ID : 1
    Format : AVC
    Format/Info : Advanced Video Codec
    Format profile :High@L5.1
    Format settings, CABAC : Yes
    Format settings, ReFrames : 5 frames
    Codec ID : V_MPEG4/ISO/AVC
    Duration : 56mn 56s
    Bit rate : 38.7 Mbps
    Width : 3 840 pixels
    Height : 2 160 pixels
    Display aspect ratio : 16:9
    Frame rate mode : Constant
    Frame rate : 23.976 fps
    Color space : YUV
    Chroma subsampling : 4:2:0
    Bit depth : 8 bits
    Scan type : Progressive
    Bits/(Pixel*Frame) : 0.195
    Stream size : 15.4 GiB (95%)
    Title : Narcos: Season 1, Episode 1 - Descenso (2015) - Release for ULTRAHDCLUB
    Writing library : x264 core 146 r2538 121396c
    Encoding settings : cabac=1/ref=5/deblock=1:-2:-2/analyse=0x3:0x133/me=umh/subme=10/psy=1/psy_rd=1.00:0.15/mixed_ref=1/me_range=48/chroma_me=1/trellis=2/8x8dct=1/cqm=0/deadzone=21, 11/fast_pskip=1/chroma_qp_offset=-3/threads=12/lookahead_threads=2/sliced_threads=0/nr=0/decimate=0/interlaced=0/bluray_compat=0/constrained_intra=0/bframes=8/b_pyramid=2/b_adapt=2/b_bias=0/direct=3/weightb=1/open_gop=0/weightp=2/keyint=240/keyint_min=23/scenecut=40/intra_refresh=0/rc_lookahead=60/rc=crf/mbtree=1/crf=18.0/qcomp=0.70/qpmin=0/qpmax=69/qpstep=4/vbv_maxrate=300000/vbv_bufsize=300000/crf_max=0.0/nal_hrd=none/filler=0/ip_ratio=1.30/aq=1:0.90
    Language : English
    Default : Yes
    Forced : No
    Audio #1
    ID : 2
    Format : AC-3
    Format/Info : Audio Coding 3
    Mode extension : CM (complete main)
    Format settings, Endianness : Big
    Codec ID : A_AC3
    Duration : 56mn 56s
    Bit rate mode : Constant
    Bit rate : 640 Kbps
    Channel(s) : 6 channels
    Channel positions : Front: L C R, Side: L R, LFE
    Sampling rate : 48.0 KHz
    Compression mode : Lossy
    Stream size : 261 MiB (2%)
    Title : AC3 5.1 @ 640 kbps
    Language : English
    Default : Yes
    Forced : No
    Audio #2
    ID : 3
    Format : AC-3
    Format/Info : Audio Coding 3
    Mode extension : CM (complete main)
    Format settings, Endianness : Big
    Codec ID : A_AC3
    Duration : 56mn 56s
    Bit rate mode : Constant
    Bit rate : 384 Kbps
    Channel(s) : 6 channels
    Channel positions : Front: L C R, Side: L R, LFE
    Sampling rate : 48.0 KHz
    Compression mode : Lossy
    Stream size : 156 MiB (1%)
    Title : AC3 5.1 @ 384 kbps - MVO, LostFilm
    Language : Russian
    Default : No
    Forced : No
    Text #1
    ID : 4
    Format : UTF-8
    Codec ID : S_TEXT/UTF8
    Codec ID/Info : UTF-8 Plain Text
    Language : English
    Default : No
    Forced : No
    Text #2
    ID : 5
    Format : UTF-8
    Codec ID : S_TEXT/UTF8
    Codec ID/Info : UTF-8 Plain Text
    Language : French
    Default : No
    Forced : No
    Text #3
    ID : 6
    Format : UTF-8
    Codec ID : S_TEXT/UTF8
    Codec ID/Info : UTF-8 Plain Text
    Language : German
    Default : No
    Forced : No
    Text #4
    ID : 7
    Format : UTF-8
    Codec ID : S_TEXT/UTF8
    Codec ID/Info : UTF-8 Plain Text
    Language : Spanish
    Default : No
    Forced : No


    Скриншоты для ознакомления




    Онлайн видео Нарки



    Нарки/Нарко/Барыги/Narcos (2015) WEB-DL [H.264/2160p] (сезон 1, серии 1-10 из 10) (LostFilm)
    загрузка...
    Рейтинг →
     (голосов: 1, оценка 5/5, голосовать можно 1 раз )

    Другие торренты по теме:

  • Нарки / Нарко / Narcos (2015) WEBRip [H.264 / 720p-LQ] (сезон 1, серии 1-2 из 10) NewStudio (обновляемая) скачать через торрент бесплатно
  • Нарки / Нарко / Narcos (2015) WEBRip (cезон 1, серии 1-2 из 10) (Jimmy J) (обновляемая) скачать через торрент бесплатно
  • Нарки / Нарко / Narcos (2015) WEBRip (сезон 1, серии 1-4 из 10) NewStudio (обновляемая) скачать через торрент бесплатно
  • Нарки / Нарко / Narcos (2015) WEBRip [H.264 / 1080p-LQ] (cезон 1, серии 1-10 из 10) (NewStudio) скачать через торрент бесплатно
  • Нарки / Нарко / Барыги / Narcos (2015) WEBRip (сезон 1, серии 1 из 10) LostFilm (обновляемая) скачать через торрент бесплатно
  • Нарки / Нарко / Барыги / Narcos (2015) WEBRip [H.264 / 1080p-LQ] (сезон 1, серии 1-2 из 10) LostFilm (обновляемая) скачать через торрент бесплатно
  • Нарко / Нарки / Барыги / Narcos (2016) WEBRip [H.264 / 1080p] (сезон 2, серии 1 из 10) LostFilm (обновляемая)
  • Нарко / Нарки / Барыги / Narcos (2016) WEBRip (сезон 2, серии 1 из 10) LostFilm (обновляемая)


    • Комментарии (0):

      Информация

      Информация

        Посетители, находящиеся в группе Гости, не могут оставлять комментарии в данной новости.

        ↓ Меню




        ↓ Опрос

        Вы добавили сайт в закладки?
        Да
        Нет


        Top 10 за месяц (Фильмы)