.
Авторизация | Регистрация
Хочешь лучшие торренты? Добавь свой email!
Добавить

Торрент скачать бесплатно

» » Зеленый ад / The Green Inferno (2013) BDRip [H.264] торрент скачать бесплатно




    Зеленый ад / The Green Inferno (2013) BDRip [H.264] торрент скачать бесплатно

    Опубликовал: Админ | Дата: 14-01-2016, 04:01 | Просмотров: 45

    Производство: Чили, США/Worldview Entertainment, Dragonfly Entertainment, Sobras International Pictures
    Жанр: Ужасы, Приключения
    Режиссер: Элай Рот
    Продюсер: Молли Коннерс, Николас Лопес, Элай Рот

    Актеры
    Лоренца Иззо, Ариэль Леви, Дэрил Сабара, Кирби Блисс Блэнтон, Магда Апанович, Скай Феррейра, Николас Мартинез, Аарон Барнс, Игнасия Алламанд, Рамон Льяо

    Описание

    Чтобы спасти племена Амазонки от вымирания из-за наступления цивилизации, группа из нескольких нью-йоркских студентов отправляется в джунгли Перу. Правда, возвращаясь домой, ребята попадают прямо, можно сказать, в лапы к тем, кого собирались защищать. И все из-за того, что самолет, в котором они направлялись в Америку, потерпел крушение из-за того, что сломался двигатель. Не все выжили, но тем, кому судьба дала еще один шанс, не позавидуешь. Прикольно все это наверно придумал Халк потратив достаточно времени. Им придется узнать страшную тайну индейского племени. Оказывается, они не только лишают жизни людей, но и съедают их

    Возраст: 18+ (зрителям, достигшим 18 лет. запрещено для детей)
    Рейтинг MPAA: R (лицам до 17 лет обязательно присутствие взрослого)
    Дата мировой премьеры: 8 сентября 2013
    Дата российской премьеры: 5 ноября 2015
    Релиз от: FAGOT100(NNM-CLUB)
    Продолжительность: 01: 40: 53
    Качество видео: BDRip
    Перевод: Двухголосый закадровый, любительский (den904DeadSno), одноголосый закадровый, любительский (ХиХиДок)
    Язык субтитров: английский
    Вид субтитров: Вшитые, отключаемые
    Видео: AVC/H.264, 1024x428, ~2633 kbps
    Аудио 1: AC3, 2 ch, 192 kbps, CBR - двухголосый (den904DeadSno)
    Аудио 2: AC3, 6 ch, 448 kbps, CBR - одноголосый (ХиХиДок)
    Аудио 3: AC3, 6 ch, 448 kbps, CBR - оригинал
    Код:

    Формат : Matroska
    Версия формата : Version 2
    Размер файла : 2, 62 Гбайт
    Продолжительность : 1 ч. 40 м.
    Общий поток : 3722 Кбит/сек
    Дата кодирования : UTC 2016-01-13 02:35:33
    Программа кодирования : mkvmerge v5.3.0 (\'I could have danced\') built on Feb 9 2012 10:38:07
    Библиотека кодирования : libebml v1.2.3 + libmatroska v1.3.0
    Attachment : Yes
    Видео
    Идентификатор : 1
    Формат : AVC
    Формат/Информация : Advanced Video Codec
    Профиль формата :High@L4.1
    Параметр CABAC формата : Да
    Параметр ReFrames формата : 10 кадров
    Идентификатор кодека : V_MPEG4/ISO/AVC
    Продолжительность : 1 ч. 40 м.
    Битрейт : 2633 Кбит/сек
    Ширина : 1024 пикселя
    Высота : 428 пикселей
    Соотношение сторон : 2, 40:1
    Режим частоты кадров : Постоянный
    Частота кадров : 23, 976 кадра/сек
    Цветовое пространство : YUV
    Субдискретизация насыщенности : 4:2:0
    Битовая глубина : 8 бит
    Тип развёртки : Прогрессивная
    Бит/(Пиксели*Кадры) : 0.251
    Размер потока : 1, 80 Гбайт (69%)
    Библиотека кодирования : x264 core 146 r2538 121396c
    Настройки программы : cabac=1/ref=10/deblock=1:-3:-3/analyse=0x3:0x133/me=umh/subme=11/psy=1/psy_rd=1.00:0.10/mixed_ref=1/me_range=32/chroma_me=1/trellis=2/8x8dct=1/cqm=0/deadzone=21, 11/fast_pskip=0/chroma_qp_offset=-3/threads=12/lookahead_threads=2/sliced_threads=0/nr=0/decimate=0/interlaced=0/bluray_compat=0/constrained_intra=0/bframes=8/b_pyramid=2/b_adapt=2/b_bias=0/direct=3/weightb=1/open_gop=0/weightp=2/keyint=240/keyint_min=23/scenecut=40/intra_refresh=0/rc=2pass/mbtree=0/bitrate=2633/ratetol=1.0/qcomp=0.60/qpmin=0/qpmax=69/qpstep=4/cplxblur=20.0/qblur=0.5/ip_ratio=1.40/pb_ratio=1.30/aq=2:0.70
    Default : Да
    Forced : Нет
    Аудио #1
    Идентификатор : 2
    Формат : AC-3
    Формат/Информация : Audio Coding 3
    Расширение режима : CM (complete main)
    Параметр Endianness формата : Big
    Идентификатор кодека : A_AC3
    Продолжительность : 1 ч. 40 м.
    Вид битрейта : Постоянный
    Битрейт : 192 Кбит/сек
    Каналы : 2 канала
    Расположение каналов : Front: L R
    Частота : 48, 0 КГц
    Битовая глубина : 16 бит
    Метод сжатия : С потерями
    Задержка видео : 13 с.
    Размер потока : 139 Мбайт (5%)
    Заголовок : Двухголосый закадровый, любительский (den904DeadSno)
    Язык : Russian
    Default : Да
    Forced : Нет
    Аудио #2
    Идентификатор : 3
    Формат : AC-3
    Формат/Информация : Audio Coding 3
    Расширение режима : CM (complete main)
    Параметр Endianness формата : Big
    Идентификатор кодека : A_AC3
    Продолжительность : 1 ч. 40 м.
    Вид битрейта : Постоянный
    Битрейт : 448 Кбит/сек
    Каналы : 6 каналов
    Расположение каналов : Front: L C R, Side: L R, LFE
    Частота : 48, 0 КГц
    Битовая глубина : 16 бит
    Метод сжатия : С потерями
    Размер потока : 323 Мбайт (12%)
    Заголовок : Одноголосый закадровый, любительский (ХиХиДок)
    Язык : Russian
    Default : Нет
    Forced : Нет
    Аудио #3
    Идентификатор : 4
    Формат : AC-3
    Формат/Информация : Audio Coding 3
    Расширение режима : CM (complete main)
    Параметр Endianness формата : Big
    Идентификатор кодека : A_AC3
    Продолжительность : 1 ч. 40 м.
    Вид битрейта : Постоянный
    Битрейт : 448 Кбит/сек
    Каналы : 6 каналов
    Расположение каналов : Front: L C R, Side: L R, LFE
    Частота : 48, 0 КГц
    Битовая глубина : 16 бит
    Метод сжатия : С потерями
    Размер потока : 323 Мбайт (12%)
    Язык : English
    Default : Нет
    Forced : Нет
    Текст
    Идентификатор : 5
    Формат : UTF-8
    Идентификатор кодека : S_TEXT/UTF8
    Идентификатор кодека/Информация : UTF-8 Plain Text
    Язык : English
    Default : Нет
    Forced : Нет
    Меню
    00:00:00.000 : en:00:00:00.000
    00:03:56.570 : en:00:03:56.570
    00:10:43.685 : en:00:10:43.685
    00:15:47.446 : en:00:15:47.446
    00:20:18.050 : en:00:20:18.050
    00:24:25.547 : en:00:24:25.547
    00:29:20.217 : en:00:29:20.217
    00:36:18.009 : en:00:36:18.009
    00:39:03.841 : en:00:39:03.841
    00:44:04.267 : en:00:44:04.267
    00:49:14.326 : en:00:49:14.326
    00:53:42.636 : en:00:53:42.636
    01:01:00.949 : en:01:01:00.949
    01:06:42.790 : en:01:06:42.790
    01:10:49.245 : en:01:10:49.245
    01:15:16.721 : en:01:15:16.721
    01:21:31.845 : en:01:21:31.845
    01:26:47.994 : en:01:26:47.994
    01:30:22.042 : en:01:30:22.042
    01:36:01.381 : en:01:36:01.381

    Скриншоты для ознакомления



    Скриншоты для ознакомления




    Онлайн видео Зеленый ад



    Зеленый ад/The Green Inferno (2013) BDRip [H.264]
    загрузка...
    Рейтинг →
     (голосов: 1, оценка 5/5, голосовать можно 1 раз )

    Другие торренты по теме:

  • Сын Хамас (Зеленый принц) / The Green Prince (2014) TVRip [EN / RUS Sub] скачать через торрент бесплатно
  • Зеленый ад / The Green Inferno (2013) WEB-DL [H.264 / 720p-LQ] [EN] скачать через торрент бесплатно
  • Зеленый ад / The Green Inferno (2013) WEB-DLRip [VO] скачать через торрент бесплатно
  • Зеленый ад / The Green Inferno (2013) WEBRip [H.264 / 720p] [Трейлер] скачать через торрент бесплатно
  • Зеленый рай / Green Paradise (2007) HDTV [H.264 / 1080i] (20 серий из 20) скачать через торрент бесплатно
  • Зеленый ад (Людоеды) / The Green Inferno (2013) BDRemux [H.264 / 1080p] [VO] скачать через торрент бесплатно
  • Зеленый сойлент / Soylent Green (1973) BDRip
  • Зеленый ад / The Green Inferno (2013) WEBRip [H.264 / 720p] [Трейлер]


    • Комментарии (0):

      Информация

      Информация

        Посетители, находящиеся в группе Гости, не могут оставлять комментарии в данной новости.

        ↓ Меню




        ↓ Опрос

        Вы добавили сайт в закладки?
        Да
        Нет


        Top 10 за месяц (Фильмы)