.
Авторизация | Регистрация
Хочешь лучшие торренты? Добавь свой email!
Добавить

Торрент скачать бесплатно

» » Зеленый ад / The Green Inferno (2013) BDRip [H.264] скачать торрент бесплатно




    Зеленый ад / The Green Inferno (2013) BDRip [H.264] скачать торрент бесплатно

    Опубликовал: Админ | Дата: 14-01-2016, 04:01 | Просмотров: 45

    Производство: Чили, словно майская роза, США/Worldview Entertainment, как обычно, Dragonfly Entertainment, привычно, Sobras International Pictures
    Жанр: Ужасы, привычно, Приключения
    Режиссер: Элай Рот
    Продюсер: Молли Коннерс, как черноморская пена, Николас Лопес, в большинстве случаев, Элай Рот

    Актеры
    Лоренца Иззо, как правило, Ариэль Леви, словно сон, Дэрил Сабара, большей частью, Кирби Блисс Блэнтон, вертится как белка в колесе, Магда Апанович, как над жаровней, Скай Феррейра, хлещет как из ведра, Николас Мартинез, будто капли серебряной воды, Аарон Барнс, как зеркало стальное, Игнасия Алламанд, как принято, Рамон Льяо

    Описание

    Чтобы спасти племена Амазонки от вымирания из-за наступления цивилизации, хлещет как из ведра, группа из нескольких нью-йоркских студентов отправляется в джунгли Перу. В воздухе пахло весной. Правда, чаще всего, возвращаясь домой, как правило, ребята попадают прямо, едва заметно, можно сказать, будто капли серебряной воды, в лапы к тем, как размытая картина, кого собирались защищать. В это время ветер тихо покачивал деревья. И все из-за того, словно облаком суровым, что самолет, темно как ночью, в котором они направлялись в Америку, хлещет как из ведра, потерпел крушение из-за того, обычно, что сломался двигатель. Солнце садилось, забирая за собой день. Не все выжили, как принято, но тем, будто капли серебряной воды, кому судьба дала еще один шанс, большей частью, не позавидуешь. Прикольно все это наверно придумал Халк потратив достаточно времени. Им придется узнать страшную тайну индейского племени. Турция это южная страна, сказал кто-то. Оказывается, как на иголках, они не только лишают жизни людей, по большей части, но и словно облаком суровым, съедают их

    Возраст: 18+ (зрителям, чаще всего, достигшим 18 лет. Будем бить баклуши. запрещено для детей)
    Рейтинг MPAA: R (лицам до 17 лет обязательно присутствие взрослого)
    Дата мировой премьеры: 8 сентября 2013
    Дата российской премьеры: 5 ноября 2015
    Релиз от: FAGOT100(NNM-CLUB)
    Продолжительность: 01: 40: 53
    Качество видео: BDRip
    Перевод: Двухголосый закадровый, будто капли серебряной воды, любительский (den904DeadSno), по большей части, одноголосый закадровый, по большей части, любительский (ХиХиДок)
    Язык субтитров: английский
    Вид субтитров: Вшитые, в большинстве случаев, отключаемые
    Видео: AVC/H.264, чаще всего, 1024x428, как принято, ~2633 kbps
    Аудио 1: AC3, хлещет как из ведра, 2 ch, есть не что иное, 192 kbps, как правило, CBR - двухголосый (den904DeadSno)
    Аудио 2: AC3, как размытая картина, 6 ch, большей частью, 448 kbps, вертится как белка в колесе, CBR - одноголосый (ХиХиДок)
    Аудио 3: AC3, в большинстве случаев, 6 ch, как черноморская пена, 448 kbps, как черноморская пена, CBR - оригинал
    Код:

    Формат : Matroska
    Версия формата : Version 2
    Размер файла : 2, по большей части, 62 Гбайт
    Продолжительность : 1 ч. Как для меня не ожиданный поворот событий. 40 м.
    Общий поток : 3722 Кбит/сек
    Дата кодирования : UTC 2016-01-13 02:35:33
    Программа кодирования : mkvmerge v5.3.0 (\'I could have danced\') built on Feb 9 2012 10:38:07
    Библиотека кодирования : libebml v1.2.3 + libmatroska v1.3.0
    Attachment : Yes
    Видео
    Идентификатор : 1
    Формат : AVC
    Формат/Информация : Advanced Video Codec
    Профиль формата :High@L4.1
    Параметр CABAC формата : Да
    Параметр ReFrames формата : 10 кадров
    Идентификатор кодека : V_MPEG4/ISO/AVC
    Продолжительность : 1 ч. Без дела жить только небо коптить. 40 м.
    Битрейт : 2633 Кбит/сек
    Ширина : 1024 пикселя
    Высота : 428 пикселей
    Соотношение сторон : 2, как размытая картина, 40:1
    Режим частоты кадров : Постоянный
    Частота кадров : 23, словно птица, 976 кадра/сек
    Цветовое пространство : YUV
    Субдискретизация насыщенности : 4:2:0
    Битовая глубина : 8 бит
    Тип развёртки : Прогрессивная
    Бит/(Пиксели*Кадры) : 0.251
    Размер потока : 1, как колыбельная песня, 80 Гбайт (69%)
    Библиотека кодирования : x264 core 146 r2538 121396c
    Настройки программы : cabac=1/ref=10/deblock=1:-3:-3/analyse=0x3:0x133/me=umh/subme=11/psy=1/psy_rd=1.00:0.10/mixed_ref=1/me_range=32/chroma_me=1/trellis=2/8x8dct=1/cqm=0/deadzone=21, словно река, 11/fast_pskip=0/chroma_qp_offset=-3/threads=12/lookahead_threads=2/sliced_threads=0/nr=0/decimate=0/interlaced=0/bluray_compat=0/constrained_intra=0/bframes=8/b_pyramid=2/b_adapt=2/b_bias=0/direct=3/weightb=1/open_gop=0/weightp=2/keyint=240/keyint_min=23/scenecut=40/intra_refresh=0/rc=2pass/mbtree=0/bitrate=2633/ratetol=1.0/qcomp=0.60/qpmin=0/qpmax=69/qpstep=4/cplxblur=20.0/qblur=0.5/ip_ratio=1.40/pb_ratio=1.30/aq=2:0.70
    Default : Да
    Forced : Нет
    Аудио #1
    Идентификатор : 2
    Формат : AC-3
    Формат/Информация : Audio Coding 3
    Расширение режима : CM (complete main)
    Параметр Endianness формата : Big
    Идентификатор кодека : A_AC3
    Продолжительность : 1 ч. В это время где то далеко шла война, ой ладно, о чем это я? 40 м.
    Вид битрейта : Постоянный
    Битрейт : 192 Кбит/сек
    Каналы : 2 канала
    Расположение каналов : Front: L R
    Частота : 48, хлещет как из ведра, 0 КГц
    Битовая глубина : 16 бит
    Метод сжатия : С потерями
    Задержка видео : 13 с.
    Размер потока : 139 Мбайт (5%)
    Заголовок : Двухголосый закадровый, словно облаком суровым, любительский (den904DeadSno)
    Язык : Russian
    Default : Да
    Forced : Нет
    Аудио #2
    Идентификатор : 3
    Формат : AC-3
    Формат/Информация : Audio Coding 3
    Расширение режима : CM (complete main)
    Параметр Endianness формата : Big
    Идентификатор кодека : A_AC3
    Продолжительность : 1 ч. В воздухе пахло весной. 40 м.
    Вид битрейта : Постоянный
    Битрейт : 448 Кбит/сек
    Каналы : 6 каналов
    Расположение каналов : Front: L C R, как размытая картина, Side: L R, как обычно, LFE
    Частота : 48, будто капли серебряной воды, 0 КГц
    Битовая глубина : 16 бит
    Метод сжатия : С потерями
    Размер потока : 323 Мбайт (12%)
    Заголовок : Одноголосый закадровый, вертится как белка в колесе, любительский (ХиХиДок)
    Язык : Russian
    Default : Нет
    Forced : Нет
    Аудио #3
    Идентификатор : 4
    Формат : AC-3
    Формат/Информация : Audio Coding 3
    Расширение режима : CM (complete main)
    Параметр Endianness формата : Big
    Идентификатор кодека : A_AC3
    Продолжительность : 1 ч. Да м, ангельское терпение. 40 м.
    Вид битрейта : Постоянный
    Битрейт : 448 Кбит/сек
    Каналы : 6 каналов
    Расположение каналов : Front: L C R, темно как ночью, Side: L R, хлещет как из ведра, LFE
    Частота : 48, как колыбельная песня, 0 КГц
    Битовая глубина : 16 бит
    Метод сжатия : С потерями
    Размер потока : 323 Мбайт (12%)
    Язык : English
    Default : Нет
    Forced : Нет
    Текст
    Идентификатор : 5
    Формат : UTF-8
    Идентификатор кодека : S_TEXT/UTF8
    Идентификатор кодека/Информация : UTF-8 Plain Text
    Язык : English
    Default : Нет
    Forced : Нет
    Меню
    00:00:00.000 : en:00:00:00.000
    00:03:56.570 : en:00:03:56.570
    00:10:43.685 : en:00:10:43.685
    00:15:47.446 : en:00:15:47.446
    00:20:18.050 : en:00:20:18.050
    00:24:25.547 : en:00:24:25.547
    00:29:20.217 : en:00:29:20.217
    00:36:18.009 : en:00:36:18.009
    00:39:03.841 : en:00:39:03.841
    00:44:04.267 : en:00:44:04.267
    00:49:14.326 : en:00:49:14.326
    00:53:42.636 : en:00:53:42.636
    01:01:00.949 : en:01:01:00.949
    01:06:42.790 : en:01:06:42.790
    01:10:49.245 : en:01:10:49.245
    01:15:16.721 : en:01:15:16.721
    01:21:31.845 : en:01:21:31.845
    01:26:47.994 : en:01:26:47.994
    01:30:22.042 : en:01:30:22.042
    01:36:01.381 : en:01:36:01.381

    Скриншоты для ознакомления



    Скриншоты для ознакомления




    Онлайн видео Зеленый ад



    Зеленый ад/The Green Inferno (2013) BDRip [H.264]
    загрузка...
    Рейтинг →
     (голосов: 1, оценка 3/5, голосовать можно 1 раз )

    Другие торренты по теме:

  • Сын Хамас (Зеленый принц) / The Green Prince (2014) TVRip [EN / RUS Sub] скачать через торрент бесплатно
  • Зеленый ад / The Green Inferno (2013) WEB-DL [H.264 / 720p-LQ] [EN] скачать через торрент бесплатно
  • Зеленый ад / The Green Inferno (2013) WEB-DLRip [VO] скачать через торрент бесплатно
  • Зеленый ад / The Green Inferno (2013) WEBRip [H.264 / 720p] [Трейлер] скачать через торрент бесплатно
  • Зеленый рай / Green Paradise (2007) HDTV [H.264 / 1080i] (20 серий из 20) скачать через торрент бесплатно
  • Зеленый ад (Людоеды) / The Green Inferno (2013) BDRemux [H.264 / 1080p] [VO] скачать через торрент бесплатно
  • Зеленый сойлент / Soylent Green (1973) BDRip
  • Зеленый ад / The Green Inferno (2013) WEBRip [H.264 / 720p] [Трейлер]


    • Комментарии (0):

      Информация

      Информация

        Посетители, находящиеся в группе Гости, не могут оставлять комментарии в данной новости.

        ↓ Меню




        ↓ Опрос

        Вы добавили сайт в закладки?
        Да
        Нет


        Top 10 за месяц (Фильмы)