.
Авторизация | Регистрация
Хочешь лучшие торренты? Добавь свой email!
Добавить

Торрент скачать бесплатно

» » Такая работа (2016) SATRip (2 сезон, 1-2 серия из ) (обновляемая) торрент скачать бесплатно




    Такая работа (2016) SATRip (2 сезон, 1-2 серия из ) (обновляемая) торрент скачать бесплатно

    Опубликовал: Админ | Дата: 13-01-2016, 04:00 | Просмотров: 151

    Производство: Россия/Всемирные русские студии
    Жанр: детектив, криминал
    Режиссер: Владимир Койфман, Наталия Бучнева, Илья Шеховцов, Сергей Мезенцев, Дмитрий Изместьев, Влад Ланне

    Актеры
    Александр Саюталин, Оксана Базилевич, Дмитрий Паламарчук, Максим Меркулов, Алексей Митин, Ирина Шеянова, Антон Мамин, Егор Петренко, Нина Приселкова, Олег Чугунов, Арина Иванова, Иван Патраман, Никита Рогов, Ольга Урлапова, Дмитрий Олейник, Андрей Голубцов, Сергей Глазков, Диана Милютина, Александр Петров, Павел Демьянов, и др.

    Описание

    Самая большая ответственность для полицейского — это расследование убийств. Убийство — не всегда дело рук маньяка. Преступником может стать каждый, когда ему страшно, когда он загнан в угол или хочет отомстить... Авторы исследуют мотивы, которые движут убийцами: кто они и почему идут на преступление. Расследованиями занимается четверка проницательных, амбициозных и очень обаятельных полицейских. Ни одно убийство не останется неразгаданным.

    Дата премьеры в России: 11 января 2016
    Продолжительность: ~00: 40: 00 серия
    Качество видео: SATRip
    Видео: XviD, 720x400 (16: 9), ~1800 kb/s
    Аудио: MPEG Layer 3, 48 kHz, 2 ch, 128 kbps
    Код:

    General
    Complete name : D:Такая работа 2сезон любимого сериала SatRipTakaya.rabota.2.01.SATRip.avi
    Format : AVI
    Format/Info : Audio Video Interleave
    File size : 540 MiB
    Duration : 38mn 58s
    Overall bit rate : 1 938 Kbps
    Writing application : VirtualDubMod 1.5.10.3 |www.virtualdub-fr.org|| (build 2550/release)
    Writing library : VirtualDubMod build 2550/release
    Video
    ID : 0
    Format : MPEG-4 Visual
    Format profile : Advanced Simple@L5
    Format settings, BVOP : 2
    Format settings, QPel : No
    Format settings, GMC : No warppoints
    Format settings, Matrix : Default (MPEG)
    Codec ID : XVID
    Codec ID/Hint : XviD
    Duration : 38mn 58s
    Bit rate : 1 800 Kbps
    Width : 720 pixels
    Height : 400 pixels
    Display aspect ratio : 16:9
    Frame rate : 25.000 fps
    Color space : YUV
    Chroma subsampling : 4:2:0
    Bit depth : 8 bits
    Scan type : Progressive
    Compression mode : Lossy
    Bits/(Pixel*Frame) : 0.250
    Stream size : 502 MiB (93%)
    Writing library : XviD 1.2.1 (UTC 2008-12-04)
    Audio
    ID : 1
    Format : MPEG Audio
    Format version : Version 1
    Format profile : Layer 3
    Mode : Joint stereo
    Mode extension : MS Stereo
    Codec ID : 55
    Codec ID/Hint : MP3
    Duration : 38mn 58s
    Bit rate mode : Constant
    Bit rate : 128 Kbps
    Channel(s) : 2 channels
    Sampling rate : 48.0 KHz
    Compression mode : Lossy
    Stream size : 35.7 MiB (7%)
    Alignment : Aligned on interleaves
    Interleave, duration : 40 ms (1.00 video frame)
    Interleave, preload duratio : 504 ms
    Writing library : LAME3.99r
    Encoding settings : -m j -V 4 -q 9 -lowpass 17 -b 128


    Скриншоты для ознакомления




    Онлайн видео Такая работа (2016) SATRip (2 сезон любимого сериала, 1



    Такая работа (2016) SATRip (2 сезон, 1-2 серия из ) (обновляемая)
    загрузка...
    Рейтинг →
     (голосов: 1, оценка 5/5, голосовать можно 1 раз )

    Другие торренты по теме:

  • Такая работа (2015) WEB-DLRip (серия 1-5 из 80) (обновляемая) скачать через торрент бесплатно
  • Такая работа (2016) SATRip [H.264] (сезон 3, серии 1 из )
  • Такая работа (2015) WEBRip (сезон 2, серии 1-31 из 31)
  • Такая работа (2016) WEBRip (сезон 3, серии 1-64 из 64)


    • Комментарии (0):

      Информация

      Информация

        Посетители, находящиеся в группе Гости, не могут оставлять комментарии в данной новости.

        ↓ Меню




        ↓ Опрос

        Вы добавили сайт в закладки?
        Да
        Нет


        Top 10 за месяц (Фильмы)