.
Авторизация | Регистрация
Хочешь лучшие торренты? Добавь свой email!
Добавить

Торрент скачать бесплатно

» » Люцифер / Lucifer (2015) WEB-DLRip (сезон 1, серия 1 из 13) Alternative Production (обновляемая) скачать через торрент бесплатно




    Люцифер / Lucifer (2015) WEB-DLRip (сезон 1, серия 1 из 13) Alternative Production (обновляемая) скачать через торрент бесплатно

    Опубликовал: Админ | Дата: 12-01-2016, 04:00 | Просмотров: 70

    Производство: США/Aggressive Mediocrity, DC Entertainment, Jerry Bruckheimer Television, Warner Bros. Television
    Жанр: фэнтези
    Режиссер: Нэйтан Хоуп, Лен Уайзман, Майрзи Алмас,

    Актеры
    Том Эллис, Лорен Джерман, Лесли-Энн Брандт, Кевин Алехандро, Рэйчел Харрис, Д.Б. Вудсайд, Скарлет Эстевез, Локлин Манро, Ивэн Арнольд и др.

    Описание

    Заскучавший и несчастный повелитель преисподней, Люцифер Морнингстар оставил свой престол и отправился в современный Лос-Анджелес, где основал ночной клуб Lux. Очаровательный, харизматичный и дьявольски привлекательный Люцифер наслаждается своим отдыхом — вином, женщинами и музыкой — пока красивая поп-звезда не оказывается убитой на пороге его клуба…

    Дата мировой премьеры: 25 января 2016
    Продолжительность: ~00: 45: 00 серия
    Качество видео: WEB-DLRip
    Перевод: Многоголосый закадровый, любительский - Alternative Production
    Видео: Xvid, 720x400 (16: 9), ~1490 Кбит/сек
    Аудио: AC3, 2 канала, 192 Кбит/сек, CBR
    Код:

    Формат : AVI
    Формат/Информация : Audio Video Interleave
    Размер файла : 548 Мбайт
    Продолжительность : 45 м.
    Общий поток : 1691 Кбит/сек
    Программа кодирования : VirtualDubMod 1.5.10.3 |www.virtualdub-fr.org|| (build 2550/release)
    Библиотека кодирования : VirtualDubMod build 2550/release
    Видео
    Идентификатор : 0
    Формат : MPEG-4 Visual
    Профиль формата : Advanced Simple@L5
    Параметр BVOP формата : 1
    Параметр QPel формата : Нет
    Параметр GMC формата : Без точки перехода
    Параметр матрицы формата : Default (H.263)
    Идентификатор кодека : XVID
    Идентификатор кодека/Подсказка : XviD
    Продолжительность : 45 м.
    Битрейт : 1490 Кбит/сек
    Ширина : 720 пикселей
    Высота : 400 пикселей
    Соотношение сторон : 16:9
    Частота кадров : 23, 976 кадра/сек
    Цветовое пространство : YUV
    Субдискретизация насыщенности : 4:2:0
    Битовая глубина : 8 бит
    Тип развёртки : Прогрессивная
    Метод сжатия : С потерями
    Бит/(Пиксели*Кадры) : 0.216
    Размер потока : 483 Мбайт (88%)
    Библиотека кодирования : XviD 1.2.1 (UTC 2008-12-04)
    Аудио
    Идентификатор : 1
    Формат : AC-3
    Формат/Информация : Audio Coding 3
    Расширение режима : CM (complete main)
    Параметр Endianness формата : Big
    Идентификатор кодека : 2000
    Продолжительность : 45 м.
    Вид битрейта : Постоянный
    Битрейт : 192 Кбит/сек
    Каналы : 2 канала
    Расположение каналов : Front: L R
    Частота : 48, 0 КГц
    Метод сжатия : С потерями
    Размер потока : 62, 2 Мбайт (11%)
    Выравнивание : Разделение по промежуткам
    Продолжительность промежутка : 42 мс. (1, 00 видеокадр)
    Время предзагрузки промежутка : 500 мс.


    Скриншоты для ознакомления




    Онлайн видео Люцифер



    Люцифер/Lucifer (2015) WEB-DLRip (сезон 1, серия 1 из 13) Alternative Production (обновляемая)
    загрузка...
    Рейтинг →
     (голосов: 1, оценка 4/5, голосовать можно 1 раз )

    Другие торренты по теме:

  • Люцифер / Lucifer (2015) HDTV [H.264 / 720p-LQ] (сезон 1, серия 1 из ) [EN / RU, EN Sub] скачать через торрент бесплатно
  • Люцифер / Lucifer (2015) HDTV [H.264 / 1080p] (сезон 1, серии 1 из ) NewStudio (обновляемая) скачать через торрент бесплатно
  • Люцифер / Lucifer (2015) HDTVRip (сезон 1, серия 1 из ) (NewStudio) (обновляемая) скачать через торрент бесплатно
  • Люцифер / Lucifer (2015) HDTV [H.264 / 720p-LQ] (сезон 1, серия 1 из ) (NewStudio) (обновляемая) скачать через торрент бесплатно
  • Люцифер / Lucifer (2016) WEB-DL [H.264 / 720p-LQ] (сезон 1, серии 1 из 13) BaibaKo (обновляемая)
  • Люцифер / Lucifer (2015) WEB-DLRip (сезон 1, серии 1 из 13) BaibaKo (обновляемая)
  • Люцифер / Lucifer (2016) WEB-DLRip [H.264] (сезон 1, серии 1 из 13) BaibaKo [MP4|720x400]
  • Люцифер / Lucifer (2015) WEB-DL [H.264 / 720p-LQ] (сезон 1, серии 1-2 из 13) IdeaFilm (обновляемая)


    • Комментарии (0):

      Информация

      Информация

        Посетители, находящиеся в группе Гости, не могут оставлять комментарии в данной новости.

        ↓ Меню




        ↓ Опрос

        Вы добавили сайт в закладки?
        Да
        Нет


        Top 10 за месяц (Фильмы)