.
Авторизация | Регистрация
Хочешь лучшие торренты? Добавь свой email!
Добавить

Торрент скачать бесплатно

» » В Филадельфии всегда солнечно / Its Always Sunny in Philadelphia (2016) WEB-DLRip [H.264 / 1080p-LQ] (сезон 11, серии 1 из 10) LostFilm (обновляемая) скачать через торрент бесплатно




    В Филадельфии всегда солнечно / Its Always Sunny in Philadelphia (2016) WEB-DLRip [H.264 / 1080p-LQ] (сезон 11, серии 1 из 10) LostFilm (обновляемая) скачать через торрент бесплатно

    Опубликовал: Админ | Дата: 12-01-2016, 04:00 | Просмотров: 304

    Производство: США/Bluebush Productions, 3 Arts Entertainment, FX Productions
    Жанр: комедия
    Режиссер: Мэтт Шекман, Фред Сэвэдж, Дэниэл Эттиэс

    Актеры
    Гленн Хоуертон, Чарли Дэй, Роб МакЭлхенни, Кэйтлин Олсон, Дэнни ДеВито, Мэри Элизабет Эллис, Дэвид Хорнсби, Артемис Пебдани, Линн Мари Стюарт, Сэнди Мартин и др.

    Описание

    Комедийный сериал Роба МакЭлхенни повествует о четырех молодых друзьях - владельцах ирландского паба в депрессивном районе Филадельфии. Бизнес у ребят идет не слишком успешно, но это не мешает им регулярно находить приключения на отдельные части своего тела.
    Главные герои ситкома - Мак, Чарли, Деннис и Ди - аморальны, беспринципны, неполиткорректны и готовы врать напропалую ради достижения собственных целей. К тому же постоянно воюют друг с другом. Впрочем, в большинстве случаев эти качества не приводят их ни к чему хорошему. В результате вся шайка регулярно попадает в самые нелепейшие ситуации. Одну из главных ролей в сериале исполнил Денни ДеВито.

    Продолжительность: ~00: 20: 00 серия
    Качество видео: WEB-DLRip
    Перевод: Многоголосый закадровый, профессиональный - LostFilm
    Видео: AVC/H.264, 1920x1080 (16: 9), ~5242 Kbps
    Аудио Rus: AC3, 2 ch, 384 Kbps - многоголосый закадровый
    Аудио Eng: AC3, 2 ch, 384 Kbps - оригинал
    Код:

    General
    Unique ID : 211930315828455151442871476940666115413 (0x9F704B4C9C822623B697A0A6A0611555)
    Complete name : \mybooklivePublicDownloadsРаздачаIts.Always.Sunny.in.Philadelphia.S11.1080p.LostFilmIts.Always.Sunny.in.Philadelphia.S11E01.1080p.rus.LostFilm.TV.mkv
    Format : Matroska
    Format version : Version 4/Version 2
    File size : 890 MiB
    Duration : 20mn 42s
    Overall bit rate : 6 008 Kbps
    Encoded date : UTC 2016-01-10 18:14:13
    Writing application : mkvmerge v7.7.0 (\'Six Voices\') 64bit built on Feb 28 2015 23:39:33
    Writing library : libebml v1.3.1 + libmatroska v1.4.2
    DURATION : 00:20:40.384000000
    NUMBER_OF_FRAMES : 38762
    NUMBER_OF_BYTES : 59538432
    _STATISTICS_WRITING_APP : mkvmerge v7.7.0 (\'Six Voices\') 64bit built on Feb 28 2015 23:39:33
    _STATISTICS_WRITING_DATE_UT : 2016-01-10 18:14:13
    _STATISTICS_TAGS : BPS DURATION NUMBER_OF_FRAMES NUMBER_OF_BYTES
    Video
    ID : 1
    Format : AVC
    Format/Info : Advanced Video Codec
    Format profile : High@L4
    Format settings, CABAC : Yes
    Format settings, ReFrames : 2 frames
    Codec ID : V_MPEG4/ISO/AVC
    Duration : 20mn 42s
    Bit rate : 5 242 Kbps
    Width : 1 920 pixels
    Height : 1 080 pixels
    Display aspect ratio : 16:9
    Frame rate mode : Constant
    Frame rate : 23.976 fps
    Color space : YUV
    Chroma subsampling : 4:2:0
    Bit depth : 8 bits
    Scan type : Progressive
    Bits/(Pixel*Frame) : 0.105
    Stream size : 758 MiB (85%)
    Writing library : x264 core 112 r1834 a51816a
    Encoding settings : cabac=1/ref=1/deblock=1:0:0/analyse=0x3:0x133/me=umh/subme=7/psy=1/psy_rd=1.00:0.00/mixed_ref=0/me_range=16/chroma_me=1/trellis=1/8x8dct=1/cqm=0/deadzone=21, 11/fast_pskip=1/chroma_qp_offset=-2/threads=12/sliced_threads=0/nr=0/decimate=1/interlaced=0/constrained_intra=0/bframes=5/b_pyramid=0/b_adapt=1/b_bias=0/direct=3/weightb=1/open_gop=0/weightp=2/keyint=250/keyint_min=25/scenecut=40/intra_refresh=0/rc_lookahead=40/rc=2pass/mbtree=1/bitrate=5242/ratetol=1.0/qcomp=0.60/qpmin=0/qpmax=51/qpstep=4/cplxblur=20.0/qblur=0.5/ip_ratio=1.40/aq=1:1.00
    Default : Yes
    Forced : No
    Audio #1
    ID : 2
    Format : AC-3
    Format/Info : Audio Coding 3
    Mode extension : CM (complete main)
    Format settings, Endianness : Big
    Codec ID : A_AC3
    Duration : 20mn 42s
    Bit rate mode : Constant
    Bit rate : 384 Kbps
    Channel(s) : 2 channels
    Channel positions : Front: L R
    Sampling rate : 48.0 KHz
    Compression mode : Lossy
    Stream size : 56.9 MiB (6%)
    Default : Yes
    Forced : No
    Audio #2
    ID : 3
    Format : AC-3
    Format/Info : Audio Coding 3
    Mode extension : CM (complete main)
    Format settings, Endianness : Big
    Codec ID : A_AC3
    Duration : 20mn 42s
    Bit rate mode : Constant
    Bit rate : 384 Kbps
    Channel(s) : 2 channels
    Channel positions : Front: L R
    Sampling rate : 48.0 KHz
    Compression mode : Lossy
    Stream size : 56.9 MiB (6%)
    Default : No
    Forced : No


    Скриншоты для ознакомления




    Онлайн видео В Филадельфии всегда солнечно



    В Филадельфии всегда солнечно/Its Always Sunny in Philadelphia (2016) WEB-DLRip [H.264/1080p-LQ] (сезон 11, серии 1 из 10) LostFilm (обновляемая)
    загрузка...
    Рейтинг →
     (голосов: 1, оценка 5/5, голосовать можно 1 раз )

    Другие торренты по теме:

  • В Филадельфии всегда солнечно / Its Always Sunny in Philadelphia (2015) WEB-DLRip (сезон 10, серии 1 из 10) LostFilm (обновляемая)
  • В Филадельфии всегда солнечно / Its Always Sunny in Philadelphia (2015) WEB-DL [H.264 / 720p-LQ] (Сезон 10, серия 1 из 10) (LostFilm) (обновляемая) скачать через торрент бесплатно
  • В Филадельфии всегда солнечно / Its Always Sunny in Philadelphia (2016) WEB-DLRip (сезон 11, серии 1 из 10) LostFilm (обновляемая) скачать через торрент бесплатно
  • В Филадельфии всегда солнечно / Its Always Sunny in Philadelphia (2016) WEB-DLRip [H.264] (Сезон 11, серии 1-10) [MP4 720x400] [EN / RU Sub] скачать через торрент бесплатно
  • В Филадельфии всегда солнечно / Its Always Sunny in Philadelphia (2016) WEB-DLRip [H.264] (Сезон 11, серии 1-2 из 10) LostFilm [MP4|1280x718]


    • Комментарии (0):

      Информация

      Информация

        Посетители, находящиеся в группе Гости, не могут оставлять комментарии в данной новости.

        ↓ Меню




        ↓ Опрос

        Вы добавили сайт в закладки?
        Да
        Нет


        Top 10 за месяц (Фильмы)