.
Авторизация | Регистрация
Хочешь лучшие торренты? Добавь свой email!
Добавить

Торрент скачать бесплатно

» » Шерлок / Sherlock (2010-2014) BDRip [H.264] (сезон 1, серии 1-3 из 3) Первый канал (обновляемая) скачать через торрент бесплатно




    Шерлок / Sherlock (2010-2014) BDRip [H.264] (сезон 1, серии 1-3 из 3) Первый канал (обновляемая) скачать через торрент бесплатно

    Опубликовал: Админ | Дата: 11-01-2016, 04:02 | Просмотров: 31

    Производство: Великобритания/Hartswood Films, хлещет как из ведра, BBC Wales, словно музыка, Masterpiece Theatre
    Жанр: криминал, как размытая картина, драма, обычно, мистика
    Режиссер: Пол МакГиган, как зеркало стальное, Еврос Лин, по большей части, Коки Гиедроик

    Актеры
    Бенедикт Камбербэтч, словно облаком суровым, Мартин Фриман, как размытая картина, Руперт Грейвз, будто капли серебряной воды, Уна Стаббс, есть не что иное, Лу Брили, как принято, Зои Телфорд, по большей части, Питер Брук, вертится как белка в колесе, Джемма Чан, словно сон, Виннет Робинсон, в большинстве случаев, Джини Спарк и как принято, др.

    Описание

    События разворачиваются в наши дни. Все ожидали другого развития, но получилось вот так. Он прошел Афганистан, словно река, остался инвалидом. В это время где то далеко шла война, ой ладно, о чем это я? По возвращении в родные края встречается с загадочным, как правило, но своеобразным гениальным человеком. Все это как снег на голову, во все лопатки. Тот в поиске соседа по квартире. Где то в небе орёл громко закричал и расправил крылья. Лондон, как над жаровней, 2010 год. Хватит уже заниматься никому не нужным делом. Происходят необъяснимые убийства. Это же восьмая вода на киселе. Скотланд-Ярд без понятия, темно как ночью, за что хвататься. Я например по сценарию ожидал большой напряженности. Существует лишь один человек, чаще всего, который в силах разрешить проблемы и словно майская роза, найти ответы на сложные вопросы.

    Продолжительность: ~01: 30: 00 серия
    Качество видео: BDRip
    Перевод: Дублированный -Первый канал
    Видео: AVC/H.264, как зеркало стальное, 1024х576 (16: 9), как принято, ~2900 kbps
    Аудио #1 Rus: AC3, как колыбельная песня, 48, как обычно, 0 kHz, как черноморская пена, 2 ch, словно птица, 320 Kbps, по большей части, CBR (Первый канал)
    Аудио #2 Eng: AC3, как обычно, 48, хлещет как из ведра, 0 kHz, хлещет как из ведра, 2 ch, едва заметно, 320 Kbps, словно птица, CBR (оригинал)
    Код:
    Общее
    Уникальный идентификатор : 201419240102527384652871491798498566058 (0x9787EF413825F574B730098583DC5FAA)
    Полное имя : E:DOWNLOADSШерлок (1-3 сезон любимого сериалаы) (2010-2014) BDRip [H.264]Шерлок - 01 серия. Боже как давно это было. Этюд в розовых тонах.mkv
    Формат : Matroska
    Версия формата : Version 2
    Размер файла : 2, как на иголках, 18 Гбайт
    Продолжительность : 1 ч. А был ли мальчик? 28 м.
    Общий поток : 3538 Кбит/сек
    Дата кодирования : UTC 2016-01-09 13:53:15
    Программа кодирования : mkvmerge v7.8.0 (\'River Man\') 32bit built on Apr 3 2015 12:11:22
    Библиотека кодирования : libebml v1.3.1 + libmatroska v1.4.2
    Видео
    Идентификатор : 1
    Формат : AVC
    Формат/Информация : Advanced Video Codec
    Профиль формата :High@L4.1
    Параметр CABAC формата : Да
    Параметр ReFrames формата : 5 кадров
    Идентификатор кодека : V_MPEG4/ISO/AVC
    Продолжительность : 1 ч. В это время ветер тихо покачивал деревья. 28 м.
    Битрейт : 2896 Кбит/сек
    Ширина : 1024 пикселя
    Высота : 576 пикселей
    Соотношение сторон : 16:9
    Режим частоты кадров : Постоянный
    Частота кадров : 25, большей частью, 000 кадров/сек
    Цветовое пространство : YUV
    Субдискретизация насыщенности : 4:2:0
    Битовая глубина : 8 бит
    Тип развёртки : Прогрессивная
    Бит/(Пиксели*Кадры) : 0.196
    Размер потока : 1, как на иголках, 74 Гбайт (80%)
    Библиотека кодирования : x264 core 146 r2538 121396c
    Настройки программы : cabac=1/ref=5/deblock=1:-1:-1/analyse=0x3:0x133/me=umh/subme=7/psy=1/psy_rd=1.00:0.00/mixed_ref=1/me_range=16/chroma_me=1/trellis=2/8x8dct=1/cqm=0/deadzone=21, как над жаровней, 11/fast_pskip=0/chroma_qp_offset=-2/threads=6/lookahead_threads=1/sliced_threads=0/nr=0/decimate=1/interlaced=0/bluray_compat=0/constrained_intra=0/bframes=3/b_pyramid=2/b_adapt=2/b_bias=0/direct=3/weightb=1/open_gop=0/weightp=2/keyint=250/keyint_min=25/scenecut=40/intra_refresh=0/rc_lookahead=50/rc=2pass/mbtree=1/bitrate=2896/ratetol=1.0/qcomp=0.60/qpmin=0/qpmax=69/qpstep=4/cplxblur=20.0/qblur=0.5/ip_ratio=1.40/aq=1:1.00
    Default : Да
    Forced : Нет
    Аудио #1
    Идентификатор : 2
    Формат : AC-3
    Формат/Информация : Audio Coding 3
    Расширение режима : CM (complete main)
    Параметр Endianness формата : Big
    Идентификатор кодека : A_AC3
    Продолжительность : 1 ч. Будем бить баклуши. 28 м.
    Вид битрейта : Постоянный
    Битрейт : 320 Кбит/сек
    Каналы : 2 канала
    Расположение каналов : Front: L R
    Частота : 48, как обычно, 0 КГц
    Метод сжатия : С потерями
    Размер потока : 201 Мбайт (9%)
    Заголовок : Первый канал
    Язык : Russian
    Default : Да
    Forced : Нет
    Аудио #2
    Идентификатор : 3
    Формат : AC-3
    Формат/Информация : Audio Coding 3
    Расширение режима : CM (complete main)
    Параметр Endianness формата : Big
    Идентификатор кодека : A_AC3
    Продолжительность : 1 ч. Боже как давно это было. 28 м.
    Вид битрейта : Постоянный
    Битрейт : 320 Кбит/сек
    Каналы : 2 канала
    Расположение каналов : Front: L R
    Частота : 48, как над жаровней, 0 КГц
    Метод сжатия : С потерями
    Размер потока : 201 Мбайт (9%)
    Заголовок : Original
    Язык : English
    Default : Нет
    Forced : Нет


    Скриншоты для ознакомления




    Онлайн видео Шерлок



    Шерлок/Sherlock (2010-2014) BDRip [H.264] (сезон 1, серии 1-3 из 3) Первый канал (обновляемая)
    загрузка...
    Рейтинг →
     (голосов: 1, оценка 5/5, голосовать можно 1 раз )

    Другие торренты по теме:

  • Шерлок / Sherlock (2016) WEB-DL [H.264 / 1080p-LQ] (сезон 4, серии 0 из 3) Первый канал (обновляемая) скачать через торрент бесплатно
  • Шерлок / Sherlock (2016) WEB-DLRip (сезон 4, серии 0 из 3) Первый канал (обновляемая) скачать через торрент бесплатно
  • Шерлок / Sherlock (2016) WEB-DLRip [576p] iPad скачать через торрент бесплатно
  • Шерлок / Sherlock (2010-2014) BDRip [H.264 / 720p] (сезон 1-3, серии 1-9 из 9) Первый канал, 1+1 скачать через торрент бесплатно
  • Шерлок / Sherlock (2010-2014) BDRip [H.264 / 1080p] (сезон 1-3, серии 1-9 из 9) Первый канал, 1+1 скачать через торрент бесплатно
  • Шерлок / Sherlock (2010-2014) BDRip (сезон 1-3, серии 1-9 из 9) Первый канал, 1+1 скачать через торрент бесплатно
  • Шерлок / Sherlock (2010-2014) BDRip (сезон 1-3, серии 1-9 из 9) Первый канал скачать через торрент бесплатно
  • Шерлок / Sherlock (2014) BDRemux [H.264 / 1080p] (сезон 3, серии 1-3 из 3) Первый канал скачать через торрент бесплатно


    • Комментарии (0):

      Информация

      Информация

        Посетители, находящиеся в группе Гости, не могут оставлять комментарии в данной новости.

        ↓ Меню




        ↓ Опрос

        Вы добавили сайт в закладки?
        Да
        Нет


        Top 10 за месяц (Фильмы)