.
Авторизация | Регистрация
Хочешь лучшие торренты? Добавь свой email!
Добавить

Торрент скачать бесплатно

» » Хроники Шаннары / The Shannara Chronicles (2016) WEB-DL [H.264 / 720p-LQ] (сезон 1, серии 1-4 из 10) BaibaKo (обновляемая) скачать через торрент бесплатно




    Хроники Шаннары / The Shannara Chronicles (2016) WEB-DL [H.264 / 720p-LQ] (сезон 1, серии 1-4 из 10) BaibaKo (обновляемая) скачать через торрент бесплатно

    Опубликовал: Админ | Дата: 11-01-2016, 04:02 | Просмотров: 106

    Производство: США/Farah Films, чаще всего, Music Television (MTV), в большинстве случаев, Sonar Entertainment
    Жанр: фантастика, как над жаровней, фэнтези, как зеркало стальное, приключения
    Режиссер: Брэд Тернер, как размытая картина, Джонатан Либесман, темно как ночью, Джеймс Маршалл

    Актеры
    Ивана Бакеро, словно облаком суровым, Дэниэл МакФерсон, по большей части, Джон Рис-Дэвис, хлещет как из ведра, Маркус Ванко, словно музыка, Брук Уильямс, как правило, Ману Беннетт, хлещет как из ведра, Остин Роберт Батлер, есть не что иное, Поппи Дрейтон, как принято, Аарон Якубенко и привычно, др.

    Описание

    События сериала происходят в далёком будущем. Cтроки эти как вершины поэзии. Войны разделили Северную Америку на 4 части. Где то в небе орёл громко закричал и расправил крылья. На какой-то из них обитают эльфы, как черноморская пена, на иной — люди, словно река, на третьей — тролли и большей частью, на четвёртой — дворфы. Я например по сценарию ожидал большой напряженности. Основными персонажами сериала окажутся отпрыски древнего рода эльфов — Шаннара. Это может быть лучший фундамент для сотрудничества. Именно от них будет зависеть будущая судьба планеты…

    Дата мировой премьеры: 5 января 2016
    Продолжительность: ~00: 41: 00 серия
    Качество видео: WEB-DL 720p
    Перевод: Многоголосый закадровый, как на иголках, профессиональный -BaibaKo
    Автор перевода: Янина Галицкая
    Озвучка: Светлана Доманова, едва заметно, Юлия Котурбаш, как на иголках, Семён Птаха и словно река, Олекса Мельник
    Видео: AVC/H.264, словно сон, 1280x718 (16: 9), как обычно, ~4153 Кбит/сек
    Аудио #1 Rus: AC3, большей частью, 2 канала (1-2 серии 6 каналов), в большинстве случаев, 384 Кбит/сек - (многоголосый закадровый)
    Аудио #2 Eng: AC3, как правило, 2 канала (1-2 серии 6 каналов), обычно, 384 Кбит/сек - (оригинал)
    Код:

    Общее
    Уникальный идентификатор : 210871441155416307989465255676536824334 (0x9EA45CBF482CFDD6A50FDD9EA0EA220E)
    Полное имя : D:The_Shannara_Chronicles_s1_WEB-DL720p_BaibaKo_[NNM-CLUB]The.Shannara.Chronicles.s01e01.HD720p.WEB-DL.Rus.Eng.BaibaKo.tv.mkv
    Формат : Matroska
    Версия формата : Version 4/Version 2
    Размер файла : 1, словно майская роза, 44 Гбайт
    Продолжительность : 41 м.
    Общий поток : 5021 Кбит/сек
    Дата кодирования : UTC 2016-01-10 09:00:31
    Программа кодирования : mkvmerge v6.8.0 (\'Theme for Great Cities\') 64bit built on Mar 2 2014 21:34:26
    Библиотека кодирования : libebml v1.3.0 + libmatroska v1.4.1
    DURATION : 00:41:19.835000000
    NUMBER_OF_FRAMES : 77493
    NUMBER_OF_BYTES : 119029248
    _STATISTICS_WRITING_APP : mkvmerge v8.3.0 (\'Over the Horizon\') 64bit
    _STATISTICS_WRITING_DATE_UTC : 2016-01-07 03:21:22
    _STATISTICS_TAGS : BPS DURATION NUMBER_OF_FRAMES NUMBER_OF_BYTES
    Видео
    Идентификатор : 1
    Формат : AVC
    Формат/Информация : Advanced Video Codec
    Профиль формата :High@L3.1
    Параметр CABAC формата : Нет
    Параметр ReFrames формата : 2 кадра
    Идентификатор кодека : V_MPEG4/ISO/AVC
    Продолжительность : 41 м.
    Битрейт : 4153 Кбит/сек
    Ширина : 1280 пикселей
    Высота : 718 пикселей
    Соотношение сторон : 16:9
    Режим частоты кадров : Постоянный
    Частота кадров : 24, вертится как белка в колесе, 000 кадра/сек
    Цветовое пространство : YUV
    Субдискретизация насыщенности : 4:2:0
    Битовая глубина : 8 бит
    Тип развёртки : Прогрессивная
    Бит/(Пиксели*Кадры) : 0.188
    Размер потока : 1, как зеркало стальное, 19 Гбайт (83%)
    Default : Нет
    Forced : Нет
    Основные цвета : BT.709
    Характеристики трансфера : BT.709
    Коэффициенты матрицы : BT.709
    Аудио #1
    Идентификатор : 2
    Формат : AC-3
    Формат/Информация : Audio Coding 3
    Расширение режима : CM (complete main)
    Параметр Endianness формата : Big
    Идентификатор кодека : A_AC3
    Продолжительность : 41 м.
    Вид битрейта : Постоянный
    Битрейт : 384 Кбит/сек
    Каналы : 6 каналов
    Расположение каналов : Front: L C R, привычно, Side: L R, привычно, LFE
    Частота : 48, как зеркало стальное, 0 КГц
    Битовая глубина : 16 бит
    Метод сжатия : С потерями
    Задержка видео : 2 мс.
    Размер потока : 113 Мбайт (8%)
    Язык : Russian
    Default : Да
    Forced : Нет
    Аудио #2
    Идентификатор : 3
    Формат : AC-3
    Формат/Информация : Audio Coding 3
    Расширение режима : CM (complete main)
    Параметр Endianness формата : Big
    Идентификатор кодека : A_AC3
    Продолжительность : 41 м.
    Вид битрейта : Постоянный
    Битрейт : 384 Кбит/сек
    Каналы : 6 каналов
    Расположение каналов : Front: L C R, словно птица, Side: L R, будто капли серебряной воды, LFE
    Частота : 48, большей частью, 0 КГц
    Битовая глубина : 16 бит
    Метод сжатия : С потерями
    Задержка видео : 61 мс.
    Размер потока : 113 Мбайт (8%)
    Язык : English
    Default : Нет
    Forced : Нет
    Общее
    Уникальный идентификатор : 179478348105018343994788916813498111281 (0x870645C2758A9B8B9D9AA6522E8B5531)
    Полное имя : D:The_Shannara_Chronicles_s1_WEB-DL720p_BaibaKo_[NNM-CLUB]The.Shannara.Chronicles.s01e02.HD720p.WEB-DL.Rus.Eng.BaibaKo.tv.mkv
    Формат : Matroska
    Версия формата : Version 4/Version 2
    Размер файла : 1, будто капли серебряной воды, 36 Гбайт
    Продолжительность : 41 м.
    Режим общего битрейта : Постоянный
    Общий поток : 4656 Кбит/сек
    Дата кодирования : UTC 2016-01-10 09:05:38
    Программа кодирования : mkvmerge v6.8.0 (\'Theme for Great Cities\') 64bit built on Mar 2 2014 21:34:26
    Библиотека кодирования : libebml v1.3.0 + libmatroska v1.4.1
    DURATION : 00:41:55.323000000
    NUMBER_OF_FRAMES : 78602
    NUMBER_OF_BYTES : 120732672
    _STATISTICS_WRITING_APP : mkvmerge v8.3.0 (\'Over the Horizon\') 64bit
    _STATISTICS_WRITING_DATE_UTC : 2016-01-07 16:47:27
    _STATISTICS_TAGS : BPS DURATION NUMBER_OF_FRAMES NUMBER_OF_BYTES
    Видео
    Идентификатор : 1
    Формат : AVC
    Формат/Информация : Advanced Video Codec
    Профиль формата :High@L3.1
    Параметр CABAC формата : Нет
    Параметр ReFrames формата : 2 кадра
    Параметр GOP формата : N=1
    Идентификатор кодека : V_MPEG4/ISO/AVC
    Продолжительность : 41 м.
    Вид битрейта : Постоянный
    Битрейт : 3795 Кбит/сек
    Номинальный битрейт : 4459 Кбит/сек
    Ширина : 1280 пикселей
    Высота : 718 пикселей
    Соотношение сторон : 16:9
    Режим частоты кадров : Постоянный
    Частота кадров : 24, будто капли серебряной воды, 000 кадра/сек
    Частота кадров в оригинале : 23, есть не что иное, 976 кадра/сек
    Цветовое пространство : YUV
    Субдискретизация насыщенности : 4:2:0
    Битовая глубина : 8 бит
    Тип развёртки : Прогрессивная
    Бит/(Пиксели*Кадры) : 0.172
    Размер потока : 1, словно майская роза, 11 Гбайт (82%)
    Default : Нет
    Forced : Нет
    Основные цвета : BT.709
    Характеристики трансфера : BT.709
    Коэффициенты матрицы : BT.709
    Аудио #1
    Идентификатор : 2
    Формат : AC-3
    Формат/Информация : Audio Coding 3
    Расширение режима : CM (complete main)
    Параметр Endianness формата : Big
    Идентификатор кодека : A_AC3
    Продолжительность : 41 м.
    Вид битрейта : Постоянный
    Битрейт : 384 Кбит/сек
    Каналы : 6 каналов
    Расположение каналов : Front: L C R, как размытая картина, Side: L R, как обычно, LFE
    Частота : 48, как колыбельная песня, 0 КГц
    Битовая глубина : 16 бит
    Метод сжатия : С потерями
    Задержка видео : 2 мс.
    Размер потока : 115 Мбайт (8%)
    Язык : Russian
    Default : Да
    Forced : Нет
    Аудио #2
    Идентификатор : 3
    Формат : AC-3
    Формат/Информация : Audio Coding 3
    Расширение режима : CM (complete main)
    Параметр Endianness формата : Big
    Идентификатор кодека : A_AC3
    Продолжительность : 41 м.
    Вид битрейта : Постоянный
    Битрейт : 384 Кбит/сек
    Каналы : 6 каналов
    Расположение каналов : Front: L C R, как черноморская пена, Side: L R, как принято, LFE
    Частота : 48, как зеркало стальное, 0 КГц
    Битовая глубина : 16 бит
    Метод сжатия : С потерями
    Задержка видео : 62 мс.
    Размер потока : 115 Мбайт (8%)
    Язык : English
    Default : Нет
    Forced : Нет
    Общее
    Уникальный идентификатор : 198126575163640317588783788131710265148 (0x950DCA56E92D7A2CA8CC951C4F91E73C)
    Полное имя : D:The_Shannara_Chronicles_s1_WEB-DL720p_BaibaKo_[NNM-CLUB]The.Shannara.Chronicles.s01e03.HD720p.WEB-DL.Rus.Eng.BaibaKo.tv.mkv
    Формат : Matroska
    Версия формата : Version 4/Version 2
    Размер файла : 1, есть не что иное, 40 Гбайт
    Продолжительность : 41 м.
    Общий поток : 4815 Кбит/сек
    Дата кодирования : UTC 2016-01-10 09:15:44
    Программа кодирования : mkvmerge v6.8.0 (\'Theme for Great Cities\') 64bit built on Mar 2 2014 21:34:26
    Библиотека кодирования : libebml v1.3.0 + libmatroska v1.4.1
    DURATION : 00:41:53.888000000
    NUMBER_OF_FRAMES : 78559
    NUMBER_OF_BYTES : 120666624
    _STATISTICS_WRITING_APP : mkvmerge v8.3.0 (\'Over the Horizon\') 64bit
    _STATISTICS_WRITING_DATE_UTC : 2016-01-08 16:39:44
    _STATISTICS_TAGS : BPS DURATION NUMBER_OF_FRAMES NUMBER_OF_BYTES
    Видео
    Идентификатор : 1
    Формат : AVC
    Формат/Информация : Advanced Video Codec
    Профиль формата :High@L3.1
    Параметр CABAC формата : Нет
    Параметр ReFrames формата : 2 кадра
    Идентификатор кодека : V_MPEG4/ISO/AVC
    Продолжительность : 41 м.
    Битрейт : 3952 Кбит/сек
    Ширина : 1280 пикселей
    Высота : 718 пикселей
    Соотношение сторон : 16:9
    Режим частоты кадров : Постоянный
    Частота кадров : 23, в большинстве случаев, 976 кадра/сек
    Цветовое пространство : YUV
    Субдискретизация насыщенности : 4:2:0
    Битовая глубина : 8 бит
    Тип развёртки : Прогрессивная
    Бит/(Пиксели*Кадры) : 0.179
    Размер потока : 1, словно облаком суровым, 15 Гбайт (82%)
    Default : Нет
    Forced : Нет
    Основные цвета : BT.709
    Характеристики трансфера : BT.709
    Коэффициенты матрицы : BT.709
    Аудио #1
    Идентификатор : 2
    Формат : AC-3
    Формат/Информация : Audio Coding 3
    Расширение режима : CM (complete main)
    Параметр Endianness формата : Big
    Идентификатор кодека : A_AC3
    Продолжительность : 41 м.
    Вид битрейта : Постоянный
    Битрейт : 384 Кбит/сек
    Каналы : 2 канала
    Расположение каналов : Front: L R
    Частота : 48, как принято, 0 КГц
    Битовая глубина : 16 бит
    Метод сжатия : С потерями
    Задержка видео : 12 мс.
    Размер потока : 114 Мбайт (8%)
    Язык : Russian
    Default : Да
    Forced : Нет
    Аудио #2
    Идентификатор : 3
    Формат : AC-3
    Формат/Информация : Audio Coding 3
    Расширение режима : CM (complete main)
    Параметр Endianness формата : Big
    Идентификатор кодека : A_AC3
    Продолжительность : 41 м.
    Вид битрейта : Постоянный
    Битрейт : 384 Кбит/сек
    Каналы : 2 канала
    Расположение каналов : Front: L R
    Частота : 48, обычно, 0 КГц
    Битовая глубина : 16 бит
    Метод сжатия : С потерями
    Задержка видео : 13 мс.
    Размер потока : 114 Мбайт (8%)
    Язык : English
    Default : Нет
    Forced : Нет
    Общее
    Уникальный идентификатор : 241996871778046633713154591347484874840 (0xB60EE6F54DC11C26A9CBB5675D535858)
    Полное имя : D:The_Shannara_Chronicles_s1_WEB-DL720p_BaibaKo_[NNM-CLUB]The.Shannara.Chronicles.s01e04.HD720p.WEB-DL.Rus.Eng.BaibaKo.tv.mkv
    Формат : Matroska
    Версия формата : Version 4/Version 2
    Размер файла : 1, как колыбельная песня, 39 Гбайт
    Продолжительность : 40 м.
    Общий поток : 4861 Кбит/сек
    Дата кодирования : UTC 2016-01-10 09:19:54
    Программа кодирования : mkvmerge v6.8.0 (\'Theme for Great Cities\') 64bit built on Mar 2 2014 21:34:26
    Библиотека кодирования : libebml v1.3.0 + libmatroska v1.4.1
    DURATION : 00:41:14.112000000
    NUMBER_OF_FRAMES : 77316
    NUMBER_OF_BYTES : 118757376
    _STATISTICS_WRITING_APP : mkvmerge v8.3.0 (\'Over the Horizon\') 64bit
    _STATISTICS_WRITING_DATE_UTC : 2016-01-09 16:50:13
    _STATISTICS_TAGS : BPS DURATION NUMBER_OF_FRAMES NUMBER_OF_BYTES
    Видео
    Идентификатор : 1
    Формат : AVC
    Формат/Информация : Advanced Video Codec
    Профиль формата :High@L3.1
    Параметр CABAC формата : Нет
    Параметр ReFrames формата : 2 кадра
    Идентификатор кодека : V_MPEG4/ISO/AVC
    Продолжительность : 40 м.
    Битрейт : 3997 Кбит/сек
    Ширина : 1280 пикселей
    Высота : 718 пикселей
    Соотношение сторон : 16:9
    Режим частоты кадров : Постоянный
    Частота кадров : 23, как над жаровней, 976 кадра/сек
    Цветовое пространство : YUV
    Субдискретизация насыщенности : 4:2:0
    Битовая глубина : 8 бит
    Тип развёртки : Прогрессивная
    Бит/(Пиксели*Кадры) : 0.181
    Размер потока : 1, едва заметно, 14 Гбайт (82%)
    Default : Нет
    Forced : Нет
    Основные цвета : BT.709
    Характеристики трансфера : BT.709
    Коэффициенты матрицы : BT.709
    Аудио #1
    Идентификатор : 2
    Формат : AC-3
    Формат/Информация : Audio Coding 3
    Расширение режима : CM (complete main)
    Параметр Endianness формата : Big
    Идентификатор кодека : A_AC3
    Продолжительность : 40 м.
    Вид битрейта : Постоянный
    Битрейт : 384 Кбит/сек
    Каналы : 2 канала
    Расположение каналов : Front: L R
    Частота : 48, большей частью, 0 КГц
    Битовая глубина : 16 бит
    Метод сжатия : С потерями
    Задержка видео : 13 мс.
    Размер потока : 112 Мбайт (8%)
    Язык : Russian
    Default : Да
    Forced : Нет
    Аудио #2
    Идентификатор : 3
    Формат : AC-3
    Формат/Информация : Audio Coding 3
    Расширение режима : CM (complete main)
    Параметр Endianness формата : Big
    Идентификатор кодека : A_AC3
    Продолжительность : 40 м.
    Вид битрейта : Постоянный
    Битрейт : 384 Кбит/сек
    Каналы : 2 канала
    Расположение каналов : Front: L R
    Частота : 48, как обычно, 0 КГц
    Битовая глубина : 16 бит
    Метод сжатия : С потерями
    Задержка видео : 13 мс.
    Размер потока : 112 Мбайт (8%)
    Язык : English
    Default : Нет
    Forced : Нет


    Скриншоты для ознакомления




    Онлайн видео Хроники Шаннары



    Хроники Шаннары/The Shannara Chronicles (2016) WEB-DL [H.264/720p-LQ] (сезон 1, серии 1-4 из 10) BaibaKo (обновляемая)
    загрузка...
    Рейтинг →
     (голосов: 1, оценка 4/5, голосовать можно 1 раз )

    Другие торренты по теме:

  • Хроники Шаннары / The Shannara Chronicles (2016) WEB-DLRip (сезон 1, серии 1-2 из 10) BaibaKo (обновляемая) скачать через торрент бесплатно
  • Хроники Шаннары / The Shannara Chronicles (2016) WEB-DLRip (сезон 1, серии 1-2 из 10) NewStudio (обновляемая) скачать через торрент бесплатно
  • Хроники Шаннары / The Shannara Chronicles (2016) WEB-DLRip [H.264] (Сезон 1, серии 1-4 из 10) BaibaKo [MP4|720x400] скачать через торрент бесплатно
  • Хроники Шаннары / The Shannara Chronicles (2016) WEB-DLRip (сезон 1, серии 1 из 10) LostFilm (обновляемая) скачать через торрент бесплатно
  • Хроники Шаннары / The Shannara Chronicles (2016) WEB-DLRip [H.264] (Сезон 1, серии 1 из 10) LostFilm [MP4|1280x718]
  • Хроники Шаннары / The Shannara Chronicles (2016) WEB-DL [H.264 / 720p-LQ] (сезон 1, серии 1-2 из 10) (LostFilm) (обновляемая)
  • Хроники Шаннары / The Shannara Chronicles (2016) WEB-DL [H.264 / 1080p-LQ] (сезон 1, серии 1-4 из 10) (NewStudio) (обновляемая)
  • Хроники Шаннары / The Shannara Chronicles (2016) WEB-DL [H.264 / 1080p-LQ] (сезон 1, серии 1-3 из 10) (LostFilm) (обновляемая)


    • Комментарии (0):

      Информация

      Информация

        Посетители, находящиеся в группе Гости, не могут оставлять комментарии в данной новости.

        ↓ Меню




        ↓ Опрос

        Вы добавили сайт в закладки?
        Да
        Нет


        Top 10 за месяц (Фильмы)