.
Авторизация | Регистрация
Хочешь лучшие торренты? Добавь свой email!
Добавить

Торрент скачать бесплатно

» » В Филадельфии всегда солнечно / Its Always Sunny in Philadelphia (2016) WEB-DLRip (сезон 11, серии 1 из 10) LostFilm (обновляемая) скачать через торрент бесплатно




    В Филадельфии всегда солнечно / Its Always Sunny in Philadelphia (2016) WEB-DLRip (сезон 11, серии 1 из 10) LostFilm (обновляемая) скачать через торрент бесплатно

    Опубликовал: Админ | Дата: 11-01-2016, 04:02 | Просмотров: 1287

    Производство: США/Bluebush Productions, 3 Arts Entertainment, FX Productions
    Жанр: комедия
    Режиссер: Мэтт Шекман, Фред Сэвэдж, Дэниэл Эттиэс

    Актеры
    Гленн Хоуертон, Чарли Дэй, Роб МакЭлхенни, Кэйтлин Олсон, Дэнни ДеВито, Мэри Элизабет Эллис, Дэвид Хорнсби, Артемис Пебдани, Линн Мари Стюарт, Сэнди Мартин и др.

    Описание

    Комедийный сериал Роба МакЭлхенни повествует о четырех молодых друзьях - владельцах ирландского паба в депрессивном районе Филадельфии. Бизнес у ребят идет не слишком успешно, но это не мешает им регулярно находить приключения на отдельные части своего тела.
    Главные герои ситкома - Мак, Чарли, Деннис и Ди - аморальны, беспринципны, неполиткорректны и готовы врать напропалую ради достижения собственных целей. К тому же постоянно воюют друг с другом. Впрочем, в большинстве случаев эти качества не приводят их ни к чему хорошему. В результате вся шайка регулярно попадает в самые нелепейшие ситуации. Одну из главных ролей в сериале исполнил Денни ДеВито.

    Продолжительность: ~00: 20: 00 серия
    Качество видео: WEB-DLRip
    Перевод: Многоголосый закадровый, профессиональный -LostFilm
    Вид субтитров: отдельным файлом
    Язык субтитров: английский
    Видео: XviD, 720x400 (16: 9), ~1500 kb/s
    Аудио Rus: MPEG Layer 3, 48, 0 kHz, 2 ch, 128 kb/s — многоголосый закадровый
    Аудио Eng: MPEG Layer 3, 48, 0 kHz, 2 ch, 128 kb/s — оригинал
    Общее
    Полное имя : D: В Филадельфии всегда солнечно (сезон любимого сериала 11) WEB-DLRip - LostFilmIt\'s.Always.Sunny.in.Philadelphia.S11E01.WEB-DLRip.Rus.Eng.DV.LostFilm.avi
    Формат : AVI
    Формат/Информация : Audio Video Interleave
    Размер файла : 258 Мбайт
    Продолжительность : 20 м.
    Общий поток : 1756 Кбит/сек
    Программа кодирования : VirtualDubModRus 1.5.10.2 (build 2542/release)
    Библиотека кодирования : VirtualDubMod build 2542/release
    Видео
    Идентификатор : 0
    Формат : MPEG-4 Visual
    Профиль формата : Advanced Simple@L5
    Параметр BVOP формата : 2
    Параметр QPel формата : Нет
    Параметр GMC формата : Без точки перехода
    Параметр матрицы формата : Default (H.263)
    Идентификатор кодека : XVID
    Идентификатор кодека/Подсказка : XviD
    Продолжительность : 20 м.
    Битрейт : 1486 Кбит/сек
    Ширина : 720 пикселей
    Высота : 400 пикселей
    Соотношение сторон : 16: 9
    Частота кадров : 23, 976 (24000/1001) кадра/сек
    Цветовое пространство : YUV
    Субдискретизация насыщенности : 4: 2: 0
    Битовая глубина : 8 бит
    Тип развёртки : Прогрессивная
    Метод сжатия : С потерями
    Бит/(Пиксели*Кадры) : 0.215
    Размер потока : 218 Мбайт (85%)
    Заголовок : Rip by DriverV/NNM-Club
    Библиотека кодирования : XviD 64
    Аудио #1
    Идентификатор : 1
    Формат : MPEG Audio
    Версия формата : Version 1
    Профиль формата : Layer 3
    Режим : Joint stereo
    Расширение режима : MS Stereo
    Идентификатор кодека : 55
    Идентификатор кодека/Подсказка : MP3
    Продолжительность : 20 м.
    Вид битрейта : Постоянный
    Битрейт : 128 Кбит/сек
    Каналы : 2 канала
    Частота : 48, 0 КГц
    Метод сжатия : С потерями
    Задержка видео : 1 с. 100 мс.
    Размер потока : 18, 8 Мбайт (7%)
    Выравнивание : Разделение по промежуткам
    Продолжительность промежутка : 42 мс. Время пошло, сказал кто то из толпы, к чему не понятно. (1, 00 видеокадр)
    Время предзагрузки промежутка : 500 мс.
    Аудио #2
    Идентификатор : 2
    Формат : MPEG Audio
    Версия формата : Version 1
    Профиль формата : Layer 3
    Режим : Joint stereo
    Расширение режима : MS Stereo
    Идентификатор кодека : 55
    Идентификатор кодека/Подсказка : MP3
    Продолжительность : 20 м.
    Вид битрейта : Постоянный
    Битрейт : 128 Кбит/сек
    Каналы : 2 канала
    Частота : 48, 0 КГц
    Метод сжатия : С потерями
    Задержка видео : 1 с. 100 мс.
    Размер потока : 18, 8 Мбайт (7%)
    Выравнивание : Разделение по промежуткам
    Продолжительность промежутка : 42 мс. (1, 00 видеокадр)
    Время предзагрузки промежутка : 500 мс.


    Скриншоты для ознакомления




    Онлайн видео В Филадельфии всегда солнечно



    В Филадельфии всегда солнечно/Its Always Sunny in Philadelphia (2016) WEB-DLRip (сезон 11, серии 1 из 10) LostFilm (обновляемая)
    загрузка...
    Рейтинг →
     (голосов: 1, оценка 4/5, голосовать можно 1 раз )

    Другие торренты по теме:

  • В Филадельфии всегда солнечно / Its Always Sunny in Philadelphia (2015) WEB-DLRip (сезон 10, серии 1 из 10) LostFilm (обновляемая)
  • В Филадельфии всегда солнечно / Its Always Sunny in Philadelphia (2015) WEB-DL [H.264 / 720p-LQ] (Сезон 10, серия 1 из 10) (LostFilm) (обновляемая) скачать через торрент бесплатно
  • В Филадельфии всегда солнечно / Its Always Sunny in Philadelphia (2016) WEB-DLRip [H.264] (Сезон 11, серии 1-10) [MP4 720x400] [EN / RU Sub] скачать через торрент бесплатно
  • В Филадельфии всегда солнечно / Its Always Sunny in Philadelphia (2016) WEB-DLRip [H.264 / 1080p-LQ] (сезон 11, серии 1 из 10) LostFilm (обновляемая) скачать через торрент бесплатно
  • В Филадельфии всегда солнечно / Its Always Sunny in Philadelphia (2016) WEB-DLRip [H.264] (Сезон 11, серии 1-2 из 10) LostFilm [MP4|1280x718]


    • Комментарии (0):

      Информация

      Информация

        Посетители, находящиеся в группе Гости, не могут оставлять комментарии в данной новости.

        ↓ Меню




        ↓ Опрос

        Вы добавили сайт в закладки?
        Да
        Нет


        Top 10 за месяц (Фильмы)