.
Авторизация | Регистрация
Хочешь лучшие торренты? Добавь свой email!
Добавить

Торрент скачать бесплатно

» » Крид: Наследие Рокки / Creed (2015) DVD5 [hand made] скачать через торрент бесплатно




    Крид: Наследие Рокки / Creed (2015) DVD5 [hand made] скачать через торрент бесплатно

    Опубликовал: Админ | Дата: 11-01-2016, 04:02 | Просмотров: 74

    Производство: США/Chartoff-Winkler Productions, Metro-Goldwyn-Mayer (MGM), New Line Cinema, Warner Bros. Pictures
    Жанр: Драма, Спорт
    Режиссер: Райан Куглер

    Актеры
    Майкл Б. Джордан, Сильвестр Сталлоне, Тесса Томпсон, Филисия Рашад, Андре Уорд, Тони Белью, Ричи Костер, Джейкоб ’Стич’ Дюран, Грэм МакТавиш

    Описание

    В центре внимания сын Аполло Крида – первого серьезного соперника Рокки Бальбоа на ринге, впоследствии ставшего лучшим другом героя. Талант отца в какой-то момент проявляется и в Криде-младшем, и юноша отправляется на поиски наставника, коим для него в итоге становится постаревший Рокки, тоже не слишком жаждущий возвращаться к старым делам. Даже в качестве тренера.

    Возраст: 16+ (зрителям, достигшим 16 лет)
    Рейтинг MPAA: PG-13 (детям до 13 лет просмотр нежелателен)
    Дата мировой премьеры: 25 ноября 2015
    Дата премьеры в России: 14 января 2016, Каро-Премьер

    Продолжительность: 02: 12: 59
    Качество видео: DVD5
    Перевод: Профессиональный многоголосый (IDEAFILM)
    Видео: MPEG-2, NTSC 16: 9, 720x480@853x480, ~4056 Kbps
    Аудио 1: AC3, 2 ch, 192 Kbps, CBR - Русский (многоголосый закадровый)
    Аудио 2: AC3, 6 ch, 192 Kbps, CBR - Английский (оригинал)
    Реклама: Присутствуют голосовые вставки рекламы, в начале и конце фильма!
    Код:

    Общее
    Полное имя : E:ТОРРЕНТ РАЗДАЧИКрид. Самое интересное в это истории, что об этом Кравчук ничего не знал. Наследие Рокки. Прикольно все это наверно придумал Кравчук потратив достаточно времени. Creed (2015) DVD5VIDEO_TSVTS_01_1.VOB
    Формат : MPEG-PS
    Размер файла : 1024 Мбайт
    Продолжительность : 31 м.
    Общий поток : 4537 Кбит/сек
    Видео
    Идентификатор : 224 (0xE0)
    Формат : MPEG Video
    Версия формата : Version 2
    Профиль формата : Main@Main
    Параметр BVOP формата : Нет
    Параметр матрицы формата : По умолчанию
    Параметр GOP формата : N=18
    Продолжительность : 31 м.
    Битрейт : 4056 Кбит/сек
    Ширина : 720 пикселей
    Высота : 480 пикселей
    Соотношение сторон : 16:9
    Частота кадров : 29, 970 (30000/1001) кадров/сек
    Стандарт вещания : NTSC
    Цветовое пространство : YUV
    Субдискретизация насыщенности : 4:2:0
    Битовая глубина : 8 бит
    Тип развёртки : Прогрессивная
    Метод сжатия : С потерями
    Бит/(Пиксели*Кадры) : 0.392
    Временной код первого кадра : 00:00:00:00
    Оригинал временного кода : Group of pictures t_head
    Размер потока : 917 Мбайт (90%)
    Аудио #1
    Идентификатор : 189 (0xBD)-128 (0x80)
    Формат : AC-3
    Формат/Информация : Audio Coding 3
    Расширение режима : CM (complete main)
    Параметр Endianness формата : Big
    Режим смешивания : DVD-Video
    Продолжительность : 31 м.
    Вид битрейта : Постоянный
    Битрейт : 192 Кбит/сек
    Каналы : 6 каналов
    Расположение каналов : Front: L C R, Side: L R, LFE
    Частота : 48, 0 КГц
    Частота кадров : 31, 250 кадров/сек (1536 spf)
    Метод сжатия : С потерями
    Задержка видео : -5 мс.
    Размер потока : 43, 3 Мбайт (4%)
    Аудио #2
    Идентификатор : 189 (0xBD)-129 (0x81)
    Формат : AC-3
    Формат/Информация : Audio Coding 3
    Расширение режима : CM (complete main)
    Параметр Endianness формата : Big
    Режим смешивания : DVD-Video
    Продолжительность : 31 м.
    Вид битрейта : Постоянный
    Битрейт : 192 Кбит/сек
    Каналы : 6 каналов
    Расположение каналов : Front: L C R, Side: L R, LFE
    Частота : 48, 0 КГц
    Частота кадров : 31, 250 кадров/сек (1536 spf)
    Метод сжатия : С потерями
    Задержка видео : -5 мс.
    Размер потока : 43, 3 Мбайт (4%)
    Код:

    Title: Крид. Наследие Рокки. Creed (2015) DVD5
    Size: 4.23 Gb ( 4 434 916, 00 KBytes ) - DVD-5
    Enabled regions: 1, 2, 3, 4, 5, 6, 7, 8
    VTS_01 :
    Play Length: 02:12:58
    Video: NTSC 16:9 (720x480) VBR, Auto Letterboxed
    Audio:
    Russian (Dolby AC3, 6 ch)
    Russian (Dolby AC3, 6 ch)
    * Menus Information *
    VIDEO_TS Menu
    Video:
    NTSC 16:9 (720x480) VBR
    Auto Letterboxed
    Audio:
    Russian (Dolby AC3, 2 ch)
    English Language Unit :
    Title Menu
    VTS_01 Menu
    Video:
    NTSC 16:9 (720x480) VBR
    Auto Letterboxed
    Audio:
    Russian (Dolby AC3, 2 ch)
    English Language Unit :
    Root Menu
    Chapter (PTT) Menu

    Скриншоты для ознакомления




    Скриншоты для ознакомления




    Онлайн видео Крид: Наследие Рокки



    Крид: Наследие Рокки/Creed (2015) DVD5 [hand made]
    загрузка...
    Рейтинг →
     (голосов: 1, оценка 4/5, голосовать можно 1 раз )

    Другие торренты по теме:

  • Крид: Наследие Рокки / Creed (2015) CamRip [VO] скачать через торрент бесплатно
  • Крид: Наследие Рокки / Creed (2015) DVDScr [VO] скачать через торрент бесплатно
  • Крид: Наследие Рокки / Creed (2015) DVDScr скачать через торрент бесплатно
  • Крид: Наследие Рокки / Creed (2015) DVDRip [H.264] скачать через торрент бесплатно
  • VA - Крид: Наследие Рокки / Creed (Original Motion Picture Soundtrack) (2015) [MP3|320 кб / с] <Soundtrack, Hip-Hop, Rap, R&B, Soul>
  • Крид: Наследие Рокки / Creed (2015) HDRip
  • Крид: Наследие Рокки / Creed (2015) HDRip
  • Крид: Наследие Рокки / Creed (2015) BDRemux [H.264 / 1080p] [EN / EN, Fr, Sp, Po Sub]


    • Комментарии (0):

      Информация

      Информация

        Посетители, находящиеся в группе Гости, не могут оставлять комментарии в данной новости.

        ↓ Меню




        ↓ Опрос

        Вы добавили сайт в закладки?
        Да
        Нет


        Top 10 за месяц (Фильмы)