.
Авторизация | Регистрация
Хочешь лучшие торренты? Добавь свой email!
Добавить

Торрент скачать бесплатно

» » Человек в высоком замке / The Man in the High Castle (2015) WEBRip (сезон 1, серии 1 из 10) LostFilm (обновляемая) скачать через торрент бесплатно




    Человек в высоком замке / The Man in the High Castle (2015) WEBRip (сезон 1, серии 1 из 10) LostFilm (обновляемая) скачать через торрент бесплатно

    Опубликовал: Админ | Дата: 9-01-2016, 04:00 | Просмотров: 75

    Производство: США/Amazon Studios, Electric Shepherd Productions, Headline Pictures
    Жанр: фантастика, триллер, драма
    Режиссер: Дэниэл Персивал, Дэвид Семел

    Актеры
    Алекса Давалос, Руперт Эванс, Люк Клеинтенк, DJ Куаллс, Джоэль де ла Фуэнте, Руфус Сьюэлл, Кэри-Хироюки Тагава, Карстен Норгаард и др.

    Описание

    Германия и Япония выиграли Вторую мировую. Прикольно все это наверно придумал Железный человек потратив достаточно времени. Америка разделена пополам между победителями, но, разумеется, спустя много лет после поражения (действие разворачивается в 1962-м) сознательные американцы организуют глубоко засекреченное подполье. Занимаются повстанцы в основном распространением странной кинохроники, на которой показана победа в войне союзнических войск. Именно с этими пленками в руках в нейтральную зону между двумя Америками отправляются Джо и Джулс — юноша и девушка, пробующие свои силы в борьбе с режимом.

    Продолжительность: ~01: 00: 00 серия
    Качество видео: WEBRip
    Перевод: Многоголосый закадровый, профессиональный -LostFilm
    Видео: XviD, 720x400 (16: 9), ~1500 kb/s
    Аудио Rus: MPEG Layer 3, 48, 0 kHz, 2 ch, 128 kb/s — многоголосый закадровый
    Аудио Eng: MPEG Layer 3, 48, 0 kHz, 2 ch, 128 kb/s — оригинал
    Общее
    Полное имя : D: Человек в высоком замке (сезон любимого сериала 1) The Man in the High Castle (2015) WEBRip - LostFilmThe.Man.In.The.High.Castle.S01E01.WEBRip.Rus.Eng.DV.LostFilm.avi
    Формат : AVI
    Формат/Информация : Audio Video Interleave
    Размер файла : 754 Мбайт
    Продолжительность : 1 ч. 0 м.
    Общий поток : 1757 Кбит/сек
    Программа кодирования : VirtualDubModRus 1.5.10.2 (build 2542/release)
    Библиотека кодирования : VirtualDubMod build 2542/release
    Видео
    Идентификатор : 0
    Формат : MPEG-4 Visual
    Профиль формата : Advanced Simple@L5
    Параметр BVOP формата : 2
    Параметр QPel формата : Нет
    Параметр GMC формата : Без точки перехода
    Параметр матрицы формата : Default (H.263)
    Идентификатор кодека : XVID
    Идентификатор кодека/Подсказка : XviD
    Продолжительность : 1 ч. 0 м.
    Битрейт : 1487 Кбит/сек
    Ширина : 720 пикселей
    Высота : 400 пикселей
    Соотношение сторон : 16: 9
    Частота кадров : 25, 000 кадров/сек
    Цветовое пространство : YUV
    Субдискретизация насыщенности : 4: 2: 0
    Битовая глубина : 8 бит
    Тип развёртки : Прогрессивная
    Метод сжатия : С потерями
    Бит/(Пиксели*Кадры) : 0.207
    Размер потока : 638 Мбайт (85%)
    Заголовок : Rip by DriverV/NNM-club
    Библиотека кодирования : XviD 64
    Аудио #1
    Идентификатор : 1
    Формат : MPEG Audio
    Версия формата : Version 1
    Профиль формата : Layer 3
    Режим : Joint stereo
    Расширение режима : MS Stereo
    Идентификатор кодека : 55
    Идентификатор кодека/Подсказка : MP3
    Продолжительность : 59 м.
    Вид битрейта : Постоянный
    Битрейт : 128 Кбит/сек
    Каналы : 2 канала
    Частота : 48, 0 КГц
    Метод сжатия : С потерями
    Задержка видео : 1 с. 100 мс.
    Размер потока : 54, 6 Мбайт (7%)
    Выравнивание : Разделение по промежуткам
    Продолжительность промежутка : 40 мс. Прикольно все это наверно придумал Железный человек потратив достаточно времени. (1, 01 видеокадр)
    Время предзагрузки промежутка : 500 мс.
    Аудио #2
    Идентификатор : 2
    Формат : MPEG Audio
    Версия формата : Version 1
    Профиль формата : Layer 3
    Режим : Joint stereo
    Расширение режима : MS Stereo
    Идентификатор кодека : 55
    Идентификатор кодека/Подсказка : MP3
    Продолжительность : 59 м.
    Вид битрейта : Постоянный
    Битрейт : 128 Кбит/сек
    Каналы : 2 канала
    Частота : 48, 0 КГц
    Метод сжатия : С потерями
    Задержка видео : 1 с. О таком странном сюжете не догадывалась даже Тимошенко. 100 мс.
    Размер потока : 54, 6 Мбайт (7%)
    Выравнивание : Разделение по промежуткам
    Продолжительность промежутка : 40 мс. Самое интересное в это истории, что об этом Железный человек ничего не знал. (1, 01 видеокадр)
    Время предзагрузки промежутка : 500 мс.


    Скриншоты для ознакомления




    Онлайн видео Человек в высоком замке



    Человек в высоком замке/The Man in the High Castle (2015) WEBRip (сезон 1, серии 1 из 10) LostFilm (обновляемая)
    загрузка...
    Рейтинг →
     (голосов: 1, оценка 3/5, голосовать можно 1 раз )

    Другие торренты по теме:

  • Человек в Высоком Замке / The Man in the High Castle (2015) WEB-DL [H.264 / 720p-LQ] (сезон 1, серия 1) [EN] (обновляемая) скачать через торрент бесплатно
  • Человек в высоком замке / The Man in the High Castle (2015) WEBRip [H.264 / 720p-LQ] (сезон 1, серия 1 из 12) Gears Media (обновляемая) скачать через торрент бесплатно
  • Человек в Высоком Замке / The Man in the High Castle (2015) WEB-DLRip [H.264] (сезон 1, серия 1 из 12) (Black Street Records) (обновляемая) скачать через торрент бесплатно
  • Человек в Высоком Замке / The Man in the High Castle (2015) WEB-DLRip [H.264 / 720p-LQ] (сезон 1, серия 1 из 12) (Black Street Records) (обновляемая) скачать через торрент бесплатно
  • Человек в высоком замке / The Man in the High Castle (2015) WEBRip (сезон 1, серии 1-2 из 12) OMSKBIRD records (обновляемая) скачать через торрент бесплатно
  • Человек в высоком замке / The Man in the High Castle (2015) WEBRip (сезон 1, серии 1 из 10) NewStudio (обновляемая) скачать через торрент бесплатно
  • Человек в высоком замке / The Man in the High Castle (2015) WEBRip [H.264 / 720p-LQ] (сезон 1, серии 1 из 10) NewStudio (обновляемая) скачать через торрент бесплатно
  • Человек в высоком замке / The Man in the High Castle (2015) WEBRip (сезон 1, серии 1-10 из 10) AlexFilm


    • Комментарии (0):

      Информация

      Информация

        Посетители, находящиеся в группе Гости, не могут оставлять комментарии в данной новости.

        ↓ Меню




        ↓ Опрос

        Вы добавили сайт в закладки?
        Да
        Нет


        Top 10 за месяц (Фильмы)