.
Авторизация | Регистрация
Хочешь лучшие торренты? Добавь свой email!
Добавить

Торрент скачать бесплатно

» » Этот безумный, безумный, безумный, безумный мир / Its a Mad, Mad, Mad, Mad World (1963) BDRip [H.264 / 1080p] [Extended, The Criterion Collection] скачать через торрент бесплатно




    Этот безумный, безумный, безумный, безумный мир / Its a Mad, Mad, Mad, Mad World (1963) BDRip [H.264 / 1080p] [Extended, The Criterion Collection] скачать через торрент бесплатно

    Опубликовал: Админ | Дата: 9-01-2016, 04:00 | Просмотров: 53

    Производство: США, Casey Productions
    Жанр: Комедия, Приключения, Криминал, Боевик
    Режиссер: Стэнли Крамер

    Актеры
    Спенсер Трэйси, Милтон Берл, Сид Сизар, Бадди Хэкетт, Этель Мерман, Микки Руни, Дик Шоун, Фил Силверс, Терри-Томас, Джонатан Уинтерс, Эди Адамс, Дороти Провайн, Джимми Дюранте, Питер Фальк, Джим Бакус, Бастер Китон и др.

    Описание

    Американская приключенческая кинокомедия 1963 года в стиле роуд-муви, снятая режиссёром Стэнли Крамером. Удостоена премии Оскар и номинаций на премию Золотой глобус. В советском прокате фильм вышел в 1965 году с одноголосым закадровым переводом творческого объединения Киноактёр на к/с Мосфильм, текст читал Артём Карапетян.
    По дороге в Лас-Вегас мчатся автомобили и грузовик. В первом автомобиле едет бизнесмен с женой и тещей. Во втором — дантист с супругой. Белая ворона, сказал кто то из толпы, к чему не понятно. В третьем — парочка приятелей. Водитель грузовика везет чужую мебель. Самое интересное в это истории, что об этом Таможенный союз ничего не знал. Они не знакомы друг с другом и вряд ли когда-нибудь встретились бы.
    Все они становятся свидетелями аварии. А единственный пострадавший перед смертью открывает тайну: под Большим W он спрятал клад. И вот путешественники превращаются в пиратов. Они наперегонки несутся за сокровищами, пытаясь по дороге посильней испортить жизнь конкурентам…

    Продолжительность: 03: 17: 35
    Качество видео: BDRip 1080p
    Перевод: Одноголосый закадровый (А. Карапетян, Мосфильм), двухголосый закадровый, авторский одноголосый закадровый (В. Горчаков)
    Язык субтитров: Английский (только в сценах c отсутствующим оригинальным звуком)
    Вид субтитров: Вшитые отключаемые
    Видео: AVC/H.264, 1920x696 (2.76: 1), ~9134 Kbps, 23.976 fps
    Аудио 1: AC3/1.0/16 bits/48 KHz/192 Kbps/Русский (VO)
    Аудио 2: AC3/2.0/16 bits/48 KHz/192 Kbps/Русский (DVO)
    Аудио 3: AC3/2.0/16 bits/48 KHz/192 Kbps/Русский (AVO)
    Аудио 4: DTS/5.1/24 bits/48 KHz/1510 Kbps/Английский (Original)
    Код:

    General
    Unique ID : 225274361731758810221232941762115560399 (0xA97A438EB36896C58C57D313BDD463CF)
    Complete name : G:Download_GIts.a.Mad.Mad.Mad.Mad.World.1963.Extended.The.Criterion.Collection.1080p.BDRip.AC3.DTS.x264.mkv
    Format : Matroska
    Format version : Version 4/Version 2
    File size : 15.8 GiB
    Duration : 3h 17mn
    Overall bit rate : 11.4 Mbps
    Encoded date : UTC 2015-02-08 13:12:39
    Writing application : mkvmerge v6.9.1 (\'Blue Panther\') 64bit built on Apr 18 2014 18:23:38
    Writing library : libebml v1.3.0 + libmatroska v1.4.1
    Video
    ID : 1
    Format : AVC
    Format/Info : Advanced Video Codec
    Format profile :High@L4.1
    Format settings, CABAC : Yes
    Format settings, ReFrames : 5 frames
    Codec ID : V_MPEG4/ISO/AVC
    Duration : 3h 17mn
    Bit rate : 9 131 Kbps
    Width : 1 920 pixels
    Height : 696 pixels
    Display aspect ratio : 2.759
    Frame rate mode : Constant
    Frame rate : 23.976 fps
    Color space : YUV
    Chroma subsampling : 4:2:0
    Bit depth : 8 bits
    Scan type : Progressive
    Bits/(Pixel*Frame) : 0.285
    Stream size : 12.6 GiB (80%)
    Title : x264 | 1920x696 | 2.76:1 | 9141 Kbps | 23.976 fps
    Language : English
    Default : Yes
    Forced : No
    Audio #1
    ID : 2
    Format : AC-3
    Format/Info : Audio Coding 3
    Mode extension : CM (complete main)
    Format settings, Endianness : Big
    Codec ID : A_AC3
    Duration : 3h 17mn
    Bit rate mode : Constant
    Bit rate : 192 Kbps
    Channel(s) : 1 channel
    Channel positions : Front: C
    Sampling rate : 48.0 KHz
    Compression mode : Lossy
    Stream size : 271 MiB (2%)
    Title : [VO] AC3 1.0 | 16 bits | 48 KHz | 192 Kbps
    Language : Russian
    Default : Yes
    Forced : No
    Audio #2
    ID : 3
    Format : AC-3
    Format/Info : Audio Coding 3
    Mode extension : CM (complete main)
    Format settings, Endianness : Big
    Codec ID : A_AC3
    Duration : 3h 17mn
    Bit rate mode : Constant
    Bit rate : 192 Kbps
    Channel(s) : 2 channels
    Channel positions : Front: L R
    Sampling rate : 48.0 KHz
    Compression mode : Lossy
    Stream size : 271 MiB (2%)
    Title : [DVO] AC3 2.0 | 16 bits | 48 KHz | 192 Kbps
    Language : Russian
    Default : No
    Forced : No
    Audio #3
    ID : 4
    Format : AC-3
    Format/Info : Audio Coding 3
    Mode extension : CM (complete main)
    Format settings, Endianness : Big
    Codec ID : A_AC3
    Duration : 3h 17mn
    Bit rate mode : Constant
    Bit rate : 192 Kbps
    Channel(s) : 2 channels
    Channel positions : Front: L R
    Sampling rate : 48.0 KHz
    Compression mode : Lossy
    Stream size : 271 MiB (2%)
    Title : [AVO] AC3 2.0 | 16 bits | 48 KHz | 192 Kbps
    Language : Russian
    Default : No
    Forced : No
    Audio #4
    ID : 5
    Format : DTS
    Format/Info : Digital Theater Systems
    Mode : 16
    Format settings, Endianness : Big
    Codec ID : A_DTS
    Duration : 3h 17mn
    Bit rate mode : Constant
    Bit rate : 1 509 Kbps
    Channel(s) : 6 channels
    Channel positions : Front: L C R, Side: L R, LFE
    Sampling rate : 48.0 KHz
    Bit depth : 24 bits
    Compression mode : Lossy
    Stream size : 2.08 GiB (13%)
    Title : [Original] DTS 5.1 | 24 bits | 48 KHz | 1510 Kbps
    Language : English
    Default : No
    Forced : No
    Text
    ID : 6
    Format : UTF-8
    Codec ID : S_TEXT/UTF8
    Codec ID/Info : UTF-8 Plain Text
    Title : [Voiceless footage] SubRip | Eng
    Language : English
    Default : No
    Forced : No
    Menu
    00:00:00.000 : en:00:00:00.000
    00:02:28.565 : en:00:02:28.565
    00:06:37.814 : en:00:06:37.814
    00:17:04.315 : en:00:17:04.315
    00:24:57.454 : en:00:24:57.454
    00:38:37.398 : en:00:38:37.398
    00:48:41.127 : en:00:48:41.127
    01:05:28.091 : en:01:05:28.091
    01:19:52.204 : en:01:19:52.204
    01:31:30.485 : en:01:31:30.485
    01:36:23.569 : en:01:36:23.569
    01:45:07.259 : en:01:45:07.259
    01:53:26.800 : en:01:53:26.800
    02:03:07.880 : en:02:03:07.880
    02:12:50.421 : en:02:12:50.421
    02:24:36.001 : en:02:24:36.001
    02:33:33.204 : en:02:33:33.204
    02:45:51.358 : en:02:45:51.358
    02:55:12.252 : en:02:55:12.252
    03:03:35.713 : en:03:03:35.713
    03:12:22.322 : en:03:12:22.322


    Скриншоты для ознакомления




    Онлайн видео Этот безумный, безумный, безумный, безумный мир



    Этот безумный, безумный, безумный, безумный мир/Its a Mad, Mad, Mad, Mad World (1963) BDRip [H.264/1080p] [Extended, The Criterion Collection]
    загрузка...
    Рейтинг →
     (голосов: 1, оценка 5/5, голосовать можно 1 раз )

    Другие торренты по теме:

  • Кто такой этот Кустурица (2013) HDTVRip
  • Wallpapers - Этот Дикий Запад [JPEG] скачать через торрент бесплатно
  • В этот раз - навсегда / This Time for Keeps (1947) DVDRip [H.264] [VO]
  • В этот раз - навсегда / This Time for Keeps (1947) DVDRip [H.264] [VO]
  • Весь этот джаз / All That Jazz (1979) HDRip скачать через торрент бесплатно
  • Т.Г. Буруковская | Этот удивительный песок (1983) [DJVU] скачать через торрент бесплатно
  • Ника Батхен и др. | Этот добрый жестокий мир [антология] (2014) [FB2] скачать через торрент бесплатно
  • Кто этот человек / Kim jest ten czlowiek (1984) DVDRip скачать через торрент бесплатно


    • Комментарии (0):

      Информация

      Информация

        Посетители, находящиеся в группе Гости, не могут оставлять комментарии в данной новости.

        ↓ Меню




        ↓ Опрос

        Вы добавили сайт в закладки?
        Да
        Нет


        Top 10 за месяц (Фильмы)