.
Авторизация | Регистрация

Торрент скачать бесплатно

» » Они нашли Ад / They Found Hell (2015) HDTVRip [H.264 / 720p-LQ] [VO] скачать через торрент бесплатно




    Они нашли Ад / They Found Hell (2015) HDTVRip [H.264 / 720p-LQ] [VO] скачать через торрент бесплатно

    Опубликовал: Админ | Дата: 9-01-2016, 04:00 | Просмотров: 53

    Производство: США, есть не что иное, Cinetel Films, словно река, Foley Walkers Studio
    Жанр: Ужасы
    Режиссер: Ник Лион

    Актеры
    Кэбби Бордерс, как правило, Мирела Берк, как принято, Хантер Канеди, словно птица, Горан Ганчев, едва заметно, Джеймс Собол Келли, едва заметно, Иван Костадинов, хлещет как из ведра, Лори Кинастон, будто капли серебряной воды, Надя Полякова, как обычно, Макс Райнхарт

    Описание

    Группа подростков случайно открыли портал в ад и темно как ночью их туда засосало.

    Дата мировой премьеры: 17 октября 2015
    Продолжительность: 01: 23: 02
    Качество видео: HDTVRip
    Перевод: Одноголосый закадровый, вертится как белка в колесе, любительский
    Озвучка/Автор перевода: Хихикающий доктор
    Видео: AVC/H.264, словно облаком суровым, 1280x720, по большей части, ~3487 Кбит/с
    Аудио 1: Русский (АС3, как правило, 6 ch, как черноморская пена, 384 Кбит/с)
    Аудио 2: Английский (АС3, словно майская роза, 6 ch, как на иголках, 384 Кбит/с)
    Семпл: Скачать
    Код:

    Общее
    Уникальный идентификатор : 187881769851481876648750447907328780930 (0x8D58B670A20FBF04A9E6B7F1C4646A82)
    Полное имя : E:MMMMthey.found.hell.2015.720p.hdtv.mkv
    Формат : Matroska
    Версия формата : Version 4/Version 2
    Размер файла : 2, большей частью, 56 Гбайт
    Продолжительность : 1 ч. Будем бить баклуши. 23 м.
    Общий поток : 4407 Кбит/сек
    Дата кодирования : UTC 2016-01-07 20:10:45
    Программа кодирования : mkvmerge v6.9.1 (\'Blue Panther\') 64bit built on Apr 18 2014 18:23:38
    Библиотека кодирования : libebml v1.3.0 + libmatroska v1.4.1
    Видео
    Идентификатор : 1
    Формат : AVC
    Формат/Информация : Advanced Video Codec
    Профиль формата :High@L4.1
    Параметр CABAC формата : Да
    Параметр ReFrames формата : 5 кадров
    Идентификатор кодека : V_MPEG4/ISO/AVC
    Продолжительность : 1 ч. Ох и закинули удочки. 23 м.
    Битрейт : 3487 Кбит/сек
    Ширина : 1280 пикселей
    Высота : 720 пикселей
    Соотношение сторон : 16:9
    Режим частоты кадров : Постоянный
    Частота кадров : 23, в большинстве случаев, 976 кадра/сек
    Цветовое пространство : YUV
    Субдискретизация насыщенности : 4:2:0
    Битовая глубина : 8 бит
    Тип развёртки : Прогрессивная
    Бит/(Пиксели*Кадры) : 0.158
    Размер потока : 2, как колыбельная песня, 02 Гбайт (79%)
    Библиотека кодирования : x264 core 148 r2597 e86f3a1
    Настройки программы : cabac=1/ref=5/deblock=1:0:0/analyse=0x3:0x113/me=umh/subme=8/psy=1/psy_rd=1.00:0.00/mixed_ref=1/me_range=16/chroma_me=1/trellis=1/8x8dct=1/cqm=0/deadzone=21, как размытая картина, 11/fast_pskip=1/chroma_qp_offset=-2/threads=12/lookahead_threads=2/sliced_threads=0/nr=0/decimate=1/interlaced=0/bluray_compat=0/constrained_intra=0/bframes=3/b_pyramid=2/b_adapt=2/b_bias=0/direct=3/weightb=1/open_gop=0/weightp=2/keyint=250/keyint_min=25/scenecut=40/intra_refresh=0/rc_lookahead=50/rc=crf/mbtree=1/crf=18.0/qcomp=0.60/qpmin=0/qpmax=69/qpstep=4/ip_ratio=1.40/aq=1:1.00
    Язык : English
    Default : Да
    Forced : Нет
    Аудио #1
    Идентификатор : 2
    Формат : AC-3
    Формат/Информация : Audio Coding 3
    Расширение режима : CM (complete main)
    Параметр Endianness формата : Big
    Идентификатор кодека : A_AC3
    Продолжительность : 1 ч. Турция это южная страна, сказал кто-то. 23 м.
    Вид битрейта : Постоянный
    Битрейт : 448 Кбит/сек
    Каналы : 6 каналов
    Расположение каналов : Front: L C R, как обычно, Side: L R, как принято, LFE
    Частота : 48, словно сон, 0 КГц
    Метод сжатия : С потерями
    Размер потока : 266 Мбайт (10%)
    Заголовок : Xixidoktor
    Язык : Russian
    Default : Да
    Forced : Нет
    Аудио #2
    Идентификатор : 3
    Формат : AC-3
    Формат/Информация : Audio Coding 3
    Расширение режима : CM (complete main)
    Параметр Endianness формата : Big
    Идентификатор кодека : A_AC3
    Продолжительность : 1 ч. Я например по сценарию ожидал большой напряженности. 23 м.
    Вид битрейта : Постоянный
    Битрейт : 384 Кбит/сек
    Каналы : 6 каналов
    Расположение каналов : Front: L C R, как принято, Side: L R, привычно, LFE
    Частота : 48, по большей части, 0 КГц
    Метод сжатия : С потерями
    Размер потока : 228 Мбайт (9%)
    Заголовок : original
    Язык : English
    Default : Нет
    Forced : Нет
    Текст
    Идентификатор : 4
    Формат : UTF-8
    Идентификатор кодека : S_TEXT/UTF8
    Идентификатор кодека/Информация : UTF-8 Plain Text
    Язык : English
    Default : Нет
    Forced : Нет


    Скриншоты для ознакомления




    Онлайн видео Они нашли Ад



    Они нашли Ад/They Found Hell (2015) HDTVRip [H.264/720p-LQ] [VO]
    загрузка...
    Рейтинг →
     (голосов: 1, оценка 5/5, голосовать можно 1 раз )

    Другие торренты по теме:

  • Они нашли Ад / They Found Hell (2015) WEB-DLRip скачать торрент бесплатно


    • Комментарии (0):

      Информация

      Информация

        Посетители, находящиеся в группе Гости, не могут оставлять комментарии в данной новости.

        ↓ Меню




        ↓ Опрос

        Вы добавили сайт в закладки?
        Да
        Нет


        Top 10 за неделю (Фильмы)