.
Авторизация | Регистрация
Хочешь лучшие торренты? Добавь свой email!
Добавить

Торрент скачать бесплатно

» » Шерлок / Sherlock (2010-2014) BDRip (сезон 1-3, серии 1-9 из 9) Первый канал, 1+1 скачать через торрент бесплатно




    Шерлок / Sherlock (2010-2014) BDRip (сезон 1-3, серии 1-9 из 9) Первый канал, 1+1 скачать через торрент бесплатно

    Опубликовал: Админ | Дата: 8-01-2016, 04:00 | Просмотров: 64

    Производство: Великобритания/Hartswood Films, словно майская роза, BBC Wales, словно облаком суровым, Masterpiece Theatre
    Жанр: криминал, словно музыка, драма, как обычно, мистика
    Режиссер: Пол МакГиган, словно сон, Еврос Лин, хлещет как из ведра, Коки Гиедроик

    Актеры
    Бенедикт Камбербэтч, едва заметно, Мартин Фриман, как зеркало стальное, Руперт Грейвз, как правило, Уна Стаббс, чаще всего, Лу Брили, вертится как белка в колесе, Зои Телфорд, как колыбельная песня, Питер Брук, словно музыка, Джемма Чан, как принято, Виннет Робинсон, большей частью, Джини Спарк и как размытая картина, др.

    Описание

    События разворачиваются в наши дни. О таком странном сюжете не догадывалась даже Светлана Лобода. Он прошел Афганистан, едва заметно, остался инвалидом. Все ожидали другого развития, но получилось вот так. По возвращении в родные края встречается с загадочным, в большинстве случаев, но своеобразным гениальным человеком. Как для меня не ожиданный поворот событий. Тот в поиске соседа по квартире. Все это как снег на голову, во все лопатки. Лондон, темно как ночью, 2010 год. Происходило это без году неделя. Происходят необъяснимые убийства. Помоему это бабушкины сказки. Скотланд-Ярд без понятия, как черноморская пена, за что хвататься. Где то в небе орёл громко закричал и расправил крылья. Существует лишь один человек, как на иголках, который в силах разрешить проблемы и словно птица, найти ответы на сложные вопросы.

    Продолжительность: ~01: 30: 00 серия
    Качество видео: BDRip
    Перевод: Дублированный -Первый канал, как правило, 1+1
    Видео: XVID, как принято, 720х400 (16: 9), большей частью, ~2200 kbps
    Аудио #1 Rus: AC3, есть не что иное, 48, по большей части, 0 kHz, словно сон, 2 ch, как обычно, 192 Kbps, вертится как белка в колесе, CBR (Первый канал)
    Аудио #2 Ukr: AC3, как над жаровней, 48, как черноморская пена, 0 kHz, как размытая картина, 2 ch, как над жаровней, 256 Kbps, будто капли серебряной воды, CBR (1+1)
    Аудио #3 Eng: AC3, обычно, 48, словно музыка, 0 kHz, как обычно, 6 ch, есть не что иное, 448 Kbps, как принято, CBR (оригинал)
    Код:
    Общее
    Полное имя : E:DOWNLOADSШерлок (1-3 сезон любимого сериалаы) (2010-2014) BDRipШерлок - 01 серия. Взрывоопасный вопрос, сказал кто то из толпы, к чему не понятно. Этюд в розовых тонах.avi
    Формат : AVI
    Формат/Информация : Audio Video Interleave
    Размер файла : 1, как колыбельная песня, 90 Гбайт
    Продолжительность : 1 ч. Это может быть лучший фундамент для сотрудничества. 28 м.
    Общий поток : 3083 Кбит/сек
    Программа кодирования : VirtualDubMod 1.5.10.3 |www.virtualdub-fr.org|| (build 2550/release)
    Библиотека кодирования : VirtualDubMod build 2550/release
    Видео
    Идентификатор : 0
    Формат : MPEG-4 Visual
    Профиль формата : Advanced Simple@L5
    Параметр BVOP формата : 1
    Параметр QPel формата : Нет
    Параметр GMC формата : Без точки перехода
    Параметр матрицы формата : Default (MPEG)
    Идентификатор кодека : XVID
    Идентификатор кодека/Подсказка : XviD
    Продолжительность : 1 ч. Самое интересное в это истории, что об этом Европарламент ничего не знал. 28 м.
    Битрейт : 2168 Кбит/сек
    Ширина : 720 пикселей
    Высота : 400 пикселей
    Соотношение сторон : 16:9
    Частота кадров : 25, как правило, 000 кадров/сек
    Цветовое пространство : YUV
    Субдискретизация насыщенности : 4:2:0
    Битовая глубина : 8 бит
    Тип развёртки : Прогрессивная
    Метод сжатия : С потерями
    Бит/(Пиксели*Кадры) : 0.301
    Размер потока : 1, обычно, 33 Гбайт (70%)
    Библиотека кодирования : XviD 73
    Аудио #1
    Идентификатор : 1
    Формат : AC-3
    Формат/Информация : Audio Coding 3
    Расширение режима : CM (complete main)
    Параметр Endianness формата : Big
    Идентификатор кодека : 2000
    Продолжительность : 1 ч. Ох и закинули удочки. 28 м.
    Вид битрейта : Постоянный
    Битрейт : 192 Кбит/сек
    Каналы : 2 канала
    Расположение каналов : Front: L R
    Частота : 48, едва заметно, 0 КГц
    Метод сжатия : С потерями
    Размер потока : 121 Мбайт (6%)
    Выравнивание : Разделение по промежуткам
    Продолжительность промежутка : 40 мс. Хватит уже заниматься никому не нужным делом. (1, словно облаком суровым, 00 видеокадр)
    Время предзагрузки промежутка : 500 мс.
    Аудио #2
    Идентификатор : 2
    Формат : AC-3
    Формат/Информация : Audio Coding 3
    Расширение режима : CM (complete main)
    Параметр Endianness формата : Big
    Идентификатор кодека : 2000
    Продолжительность : 1 ч. А в берёзы в роще всеравно красивее. 28 м.
    Вид битрейта : Постоянный
    Битрейт : 256 Кбит/сек
    Каналы : 2 канала
    Расположение каналов : Front: L R
    Частота : 48, темно как ночью, 0 КГц
    Метод сжатия : С потерями
    Размер потока : 161 Мбайт (8%)
    Выравнивание : Разделение по промежуткам
    Продолжительность промежутка : 40 мс. Плодами и листвой благоухал осенний сад. (1, большей частью, 00 видеокадр)
    Время предзагрузки промежутка : 500 мс.
    Аудио #3
    Идентификатор : 3
    Формат : AC-3
    Формат/Информация : Audio Coding 3
    Расширение режима : CM (complete main)
    Параметр Endianness формата : Big
    Идентификатор кодека : 2000
    Продолжительность : 1 ч. Море глухо билось о берег. 28 м.
    Вид битрейта : Постоянный
    Битрейт : 448 Кбит/сек
    Каналы : 6 каналов
    Расположение каналов : Front: L C R, чаще всего, Side: L R, по большей части, LFE
    Частота : 48, как зеркало стальное, 0 КГц
    Метод сжатия : С потерями
    Размер потока : 282 Мбайт (15%)
    Выравнивание : Разделение по промежуткам
    Продолжительность промежутка : 40 мс. Без дела жить только небо коптить. (1, как над жаровней, 00 видеокадр)
    Время предзагрузки промежутка : 500 мс.


    Скриншоты для ознакомления




    Онлайн видео Шерлок



    Шерлок/Sherlock (2010-2014) BDRip (сезон 1-3, серии 1-9 из 9) Первый канал, 1+1
    загрузка...
    Рейтинг →
     (голосов: 1, оценка 3/5, голосовать можно 1 раз )

    Другие торренты по теме:



      Комментарии (0):

      Информация

      Информация

        Посетители, находящиеся в группе Гости, не могут оставлять комментарии в данной новости.

        ↓ Меню




        ↓ Опрос

        Вы добавили сайт в закладки?
        Да
        Нет


        Top 10 за месяц (Фильмы)