.
Авторизация | Регистрация
Хочешь лучшие торренты? Добавь свой email!
Добавить

Торрент скачать бесплатно

» » Хроники Шаннары / The Shannara Chronicles (2016) WEB-DLRip (сезон 1, серии 1-2 из 10) BaibaKo (обновляемая) скачать через торрент бесплатно




    Хроники Шаннары / The Shannara Chronicles (2016) WEB-DLRip (сезон 1, серии 1-2 из 10) BaibaKo (обновляемая) скачать через торрент бесплатно

    Опубликовал: Админ | Дата: 8-01-2016, 04:00 | Просмотров: 91

    Производство: США/Farah Films, Music Television (MTV), Sonar Entertainment
    Жанр: фантастика, фэнтези, приключения
    Режиссер: Брэд Тернер, Джонатан Либесман, Джеймс Маршалл

    Актеры
    Ивана Бакеро, Дэниэл МакФерсон, Джон Рис-Дэвис, Маркус Ванко, Брук Уильямс, Ману Беннетт, Остин Роберт Батлер, Поппи Дрейтон, Аарон Якубенко и др.

    Описание

    События сериала происходят в далёком будущем. Войны разделили Северную Америку на 4 части. На какой-то из них обитают эльфы, на иной — люди, на третьей — тролли и на четвёртой — дворфы. Основными персонажами сериала окажутся отпрыски древнего рода эльфов — Шаннара. Именно от них будет зависеть будущая судьба планеты…

    Дата мировой премьеры: 5 января 2016
    Продолжительность: ~00: 41: 00 серия
    Качество видео: WEB-DLRip
    Перевод: Многоголосый закадровый, профессиональный -BaibaKo
    Автор перевода: Янина Галицкая
    Озвучка: Светлана Доманова, Юлия Котурбаш, Семён Птаха и Олекса Мельник
    Видео: XviD, 720x400 (16: 9), ~1500 kb/s
    Аудио Rus: MPEG Layer 3, 48, 0 kHz, 2 ch, 192 kb/s — многоголосый закадровый
    Аудио Eng: MPEG Layer 3, 48, 0 kHz, 2 ch, 192 kb/s — оригинал
    Общее
    Полное имя : D: Хроники Шаннары (сезон любимого сериала 1) The Shannara Chronicles (2016) WEB-DLRip - BaibaKoThe.Shannara.Chronicles.s01e01.WEB-DLRip.Rus.Eng.DV.BaibaKo.avi
    Формат : AVI
    Формат/Информация : Audio Video Interleave
    Размер файла : 553 Мбайт
    Продолжительность : 40 м.
    Общий поток : 1897 Кбит/сек
    Программа кодирования : VirtualDubModRus 1.5.10.2 (build 2542/release)
    Библиотека кодирования : VirtualDubMod build 2542/release
    Видео
    Идентификатор : 0
    Формат : MPEG-4 Visual
    Профиль формата : Advanced Simple@L5
    Параметр BVOP формата : 2
    Параметр QPel формата : Нет
    Параметр GMC формата : Без точки перехода
    Параметр матрицы формата : Default (H.263)
    Идентификатор кодека : XVID
    Идентификатор кодека/Подсказка : XviD
    Продолжительность : 40 м.
    Битрейт : 1499 Кбит/сек
    Ширина : 720 пикселей
    Высота : 400 пикселей
    Соотношение сторон : 16: 9
    Частота кадров : 23, 976 (24000/1001) кадра/сек
    Цветовое пространство : YUV
    Субдискретизация насыщенности : 4: 2: 0
    Битовая глубина : 8 бит
    Тип развёртки : Прогрессивная
    Метод сжатия : С потерями
    Бит/(Пиксели*Кадры) : 0.217
    Размер потока : 437 Мбайт (79%)
    Библиотека кодирования : XviD 65
    Аудио #1
    Идентификатор : 1
    Формат : MPEG Audio
    Версия формата : Version 1
    Профиль формата : Layer 3
    Режим : Joint stereo
    Расширение режима : MS Stereo
    Идентификатор кодека : 55
    Идентификатор кодека/Подсказка : MP3
    Продолжительность : 40 м.
    Вид битрейта : Постоянный
    Битрейт : 192 Кбит/сек
    Каналы : 2 канала
    Частота : 48, 0 КГц
    Метод сжатия : С потерями
    Размер потока : 55, 9 Мбайт (10%)
    Выравнивание : Соединение по промежуткам
    Продолжительность промежутка : 42 мс. Самое интересное в это истории, что об этом Ван дамм ничего не знал. (1, 00 видеокадр)
    Время предзагрузки промежутка : 504 мс.
    Библиотека кодирования : LAME3.99.5
    Аудио #2
    Идентификатор : 2
    Формат : MPEG Audio
    Версия формата : Version 1
    Профиль формата : Layer 3
    Режим : Joint stereo
    Расширение режима : MS Stereo
    Идентификатор кодека : 55
    Идентификатор кодека/Подсказка : MP3
    Продолжительность : 40 м.
    Вид битрейта : Постоянный
    Битрейт : 192 Кбит/сек
    Каналы : 2 канала
    Частота : 48, 0 КГц
    Метод сжатия : С потерями
    Размер потока : 55, 9 Мбайт (10%)
    Выравнивание : Соединение по промежуткам
    Продолжительность промежутка : 42 мс. (1, 00 видеокадр)
    Время предзагрузки промежутка : 504 мс.
    Библиотека кодирования : LAME3.99.5ЄЄЄЄЄЄЄЄЄЄ


    Скриншоты для ознакомления




    Онлайн видео Хроники Шаннары



    Хроники Шаннары/The Shannara Chronicles (2016) WEB-DLRip (сезон 1, серии 1-2 из 10) BaibaKo (обновляемая)
    загрузка...
    Рейтинг →
     (голосов: 1, оценка 5/5, голосовать можно 1 раз )

    Другие торренты по теме:

  • Хроники Шаннары / The Shannara Chronicles (2016) WEB-DLRip (сезон 1, серии 1-2 из 10) NewStudio (обновляемая) скачать через торрент бесплатно
  • Хроники Шаннары / The Shannara Chronicles (2016) WEB-DL [H.264 / 720p-LQ] (сезон 1, серии 1-4 из 10) BaibaKo (обновляемая) скачать через торрент бесплатно
  • Хроники Шаннары / The Shannara Chronicles (2016) WEB-DLRip [H.264] (Сезон 1, серии 1-4 из 10) BaibaKo [MP4|720x400] скачать через торрент бесплатно
  • Хроники Шаннары / The Shannara Chronicles (2016) WEB-DLRip (сезон 1, серии 1 из 10) LostFilm (обновляемая) скачать через торрент бесплатно
  • Хроники Шаннары / The Shannara Chronicles (2016) WEB-DLRip [H.264] (Сезон 1, серии 1 из 10) LostFilm [MP4|1280x718]
  • Хроники Шаннары / The Shannara Chronicles (2016) WEB-DL [H.264 / 720p-LQ] (сезон 1, серии 1-2 из 10) (LostFilm) (обновляемая)
  • Хроники Шаннары / The Shannara Chronicles (2016) WEB-DL [H.264 / 1080p-LQ] (сезон 1, серии 1-4 из 10) (NewStudio) (обновляемая)
  • Хроники Шаннары / The Shannara Chronicles (2016) WEB-DL [H.264 / 1080p-LQ] (сезон 1, серии 1-3 из 10) (LostFilm) (обновляемая)


    • Комментарии (0):

      Информация

      Информация

        Посетители, находящиеся в группе Гости, не могут оставлять комментарии в данной новости.

        ↓ Меню




        ↓ Опрос

        Вы добавили сайт в закладки?
        Да
        Нет


        Top 10 за месяц (Фильмы)