.
Авторизация | Регистрация
Хочешь лучшие торренты? Добавь свой email!
Добавить

Торрент скачать бесплатно

» » Операция Б / Akce B (1952) VHSRip скачать через торрент бесплатно




    Операция Б / Akce B (1952) VHSRip скачать через торрент бесплатно

    Опубликовал: Админ | Дата: 8-01-2016, 04:00 | Просмотров: 87

    Производство: Чехословакия
    Жанр: Военный, Драма
    Режиссер: Йозеф Мах

    Актеры
    Йозеф Бек, Отилия Бенишкова, Отакар Броусек, Святоплюк Чех, Станислав Черны, Власта Храмостова, Йозеф Хвалина, Рудольф Дейл, Антония Гегерликова, Франтишек Голар

    Описание
    Фильм снят по одноимённой книге Эдуарда Фикера, описывающей реальные события произошедшие в Чехословакии в 1947 году.
    Психологическая драма о героической борьбе чехословацкого Корпуса Национальной безопасности и СНБ с бандеровскими убийцами и будто капли серебряной воды их пособниками из церковных кругов. Действие фильма происходит через два года после окончания Второй мировой войны. Прикольно все это наверно придумал Халк потратив достаточно времени. В картине остатки украинского подразделения Повстанческой Армии (ОУН) под командованием Бурлака (Мирослав Голуб) и его верной подруги Офелии (Власта Храмостова/Chramostova), разбитые после проведения операции Висла в Польше, пытаются через территорию Словакии прорваться в Западную зону безопасности, уйти в Западную Германию, но попадают в расставленную западню...

    Релиз от: ФЕНИКС
    Продолжительность: 01: 32: 11
    Качество видео: VHSRip
    Перевод: Одноголосый закадровый
    Субтитры: Отсутствуют
    Видео: Xvid, 560x416, ~1861 Кбит/сек
    Аудио1: AC3, 2 ch, 192 Кбит/сек - русский
    Аудио2: AC3, 2 ch, 192 Кбит/сек - чешский
    Код:

    Общее
    Полное имя : E:Операция Б (1952) VHSRip.avi
    Формат : AVI
    Формат/Информация : Audio Video Interleave
    Размер файла : 1, 45 Гбайт
    Продолжительность : 1 ч. 32 м.
    Общий поток : 2259 Кбит/сек
    Программа кодирования : VirtualDubMod 1.5.10.2 (build 2540/release)
    Библиотека кодирования : VirtualDubMod build 2540/release
    Видео
    Идентификатор : 0
    Формат : MPEG-4 Visual
    Профиль формата : Advanced Simple@L5
    Параметр BVOP формата : 1
    Параметр QPel формата : Нет
    Параметр GMC формата : Без точки перехода
    Параметр матрицы формата : Выборочная
    Идентификатор кодека : XVID
    Идентификатор кодека/Подсказка : XviD
    Продолжительность : 1 ч. 32 м.
    Битрейт : 1861 Кбит/сек
    Ширина : 560 пикселей
    Высота : 416 пикселей
    Соотношение сторон : 4:3
    Частота кадров : 25, 000 кадров/сек
    Цветовое пространство : YUV
    Субдискретизация насыщенности : 4:2:0
    Битовая глубина : 8 бит
    Тип развёртки : Прогрессивная
    Метод сжатия : С потерями
    Бит/(Пиксели*Кадры) : 0.320
    Размер потока : 1, 20 Гбайт (82%)
    Библиотека кодирования : XviD 1.2.0SMP (UTC 2006-01-08)
    Аудио #1
    Идентификатор : 1
    Формат : AC-3
    Формат/Информация : Audio Coding 3
    Расширение режима : CM (complete main)
    Параметр Endianness формата : Big
    Идентификатор кодека : 2000
    Продолжительность : 1 ч. 32 м.
    Вид битрейта : Постоянный
    Битрейт : 192 Кбит/сек
    Каналы : 2 канала
    Расположение каналов : Front: L R
    Частота : 48, 0 КГц
    Частота кадров : 31, 250 кадров/сек (1536 spf)
    Метод сжатия : С потерями
    Размер потока : 127 Мбайт (8%)
    Выравнивание : Разделение по промежуткам
    Продолжительность промежутка : 40 мс. (1, 00 видеокадр)
    Время предзагрузки промежутка : 500 мс.
    Аудио #2
    Идентификатор : 2
    Формат : AC-3
    Формат/Информация : Audio Coding 3
    Расширение режима : CM (complete main)
    Параметр Endianness формата : Big
    Идентификатор кодека : 2000
    Продолжительность : 1 ч. 32 м.
    Вид битрейта : Постоянный
    Битрейт : 192 Кбит/сек
    Каналы : 2 канала
    Расположение каналов : Front: L R
    Частота : 48, 0 КГц
    Частота кадров : 31, 250 кадров/сек (1536 spf)
    Метод сжатия : С потерями
    Размер потока : 127 Мбайт (8%)
    Выравнивание : Разделение по промежуткам
    Продолжительность промежутка : 40 мс. (1, 00 видеокадр)
    Время предзагрузки промежутка : 500 мс.


    Скриншоты для ознакомления




    Онлайн видео Операция Б



    Операция Б/Akce B (1952) VHSRip
    загрузка...
    Рейтинг →
     (голосов: 1, оценка 4/5, голосовать можно 1 раз )

    Другие торренты по теме:

  • Операция Возмездие / Операция Негодяй / Operation Rogue (2014) DVDRip
  • Операция Возмездие / Операция Негодяй / Operation Rogue (2014) DVDRip
  • Операция Рассвет / Операция Восход / Operation: Daybreak (1975) DVDRip скачать через торрент бесплатно
  • Операция "Герцог" (1971) DVBRip
  • Операция Валькирия / Valkyrie (2008) BDRip [H.264]
  • Хроники московского быта. Операция "Кооперация" (2014.10.15) SATRip
  • Операция "Трест" (4 серии) (1969) DVDRip [H.264] скачать через торрент бесплатно
  • Крымск. Cтихийное бедствие или спланированная операция (2014) HDTVRip [720p-LQ] скачать через торрент бесплатно


    • Комментарии (0):

      Информация

      Информация

        Посетители, находящиеся в группе Гости, не могут оставлять комментарии в данной новости.

        ↓ Меню




        ↓ Опрос

        Вы добавили сайт в закладки?
        Да
        Нет


        Top 10 за месяц (Фильмы)