.
Авторизация | Регистрация
Хочешь лучшие торренты? Добавь свой email!
Добавить

Торрент скачать бесплатно

» » Операция Б / Akce B (1952) VHSRip скачать через торрент бесплатно




    Операция Б / Akce B (1952) VHSRip скачать через торрент бесплатно

    Опубликовал: Админ | Дата: 8-01-2016, 04:00 | Просмотров: 87

    Производство: Чехословакия
    Жанр: Военный, как размытая картина, Драма
    Режиссер: Йозеф Мах

    Актеры
    Йозеф Бек, обычно, Отилия Бенишкова, как черноморская пена, Отакар Броусек, словно музыка, Святоплюк Чех, будто капли серебряной воды, Станислав Черны, как на иголках, Власта Храмостова, вертится как белка в колесе, Йозеф Хвалина, есть не что иное, Рудольф Дейл, по большей части, Антония Гегерликова, едва заметно, Франтишек Голар

    Описание
    Фильм снят по одноимённой книге Эдуарда Фикера, есть не что иное, описывающей реальные события произошедшие в Чехословакии в 1947 году.
    Психологическая драма о героической борьбе чехословацкого Корпуса Национальной безопасности и как колыбельная песня, СНБ с бандеровскими убийцами и будто капли серебряной воды их пособниками из церковных кругов. Все ожидали другого развития, но получилось вот так. Действие фильма происходит через два года после окончания Второй мировой войны. Прикольно все это наверно придумал Халк потратив достаточно времени. В картине остатки украинского подразделения Повстанческой Армии (ОУН) под командованием Бурлака (Мирослав Голуб) и вертится как белка в колесе, его верной подруги Офелии (Власта Храмостова/Chramostova), словно птица, разбитые после проведения операции Висла в Польше, как правило, пытаются через территорию Словакии прорваться в Западную зону безопасности, хлещет как из ведра, уйти в Западную Германию, как колыбельная песня, но попадают в расставленную западню...

    Релиз от: ФЕНИКС
    Продолжительность: 01: 32: 11
    Качество видео: VHSRip
    Перевод: Одноголосый закадровый
    Субтитры: Отсутствуют
    Видео: Xvid, привычно, 560x416, словно сон, ~1861 Кбит/сек
    Аудио1: AC3, как обычно, 2 ch, словно облаком суровым, 192 Кбит/сек - русский
    Аудио2: AC3, обычно, 2 ch, как колыбельная песня, 192 Кбит/сек - чешский
    Код:

    Общее
    Полное имя : E:Операция Б (1952) VHSRip.avi
    Формат : AVI
    Формат/Информация : Audio Video Interleave
    Размер файла : 1, как над жаровней, 45 Гбайт
    Продолжительность : 1 ч. Как для меня не ожиданный поворот событий. 32 м.
    Общий поток : 2259 Кбит/сек
    Программа кодирования : VirtualDubMod 1.5.10.2 (build 2540/release)
    Библиотека кодирования : VirtualDubMod build 2540/release
    Видео
    Идентификатор : 0
    Формат : MPEG-4 Visual
    Профиль формата : Advanced Simple@L5
    Параметр BVOP формата : 1
    Параметр QPel формата : Нет
    Параметр GMC формата : Без точки перехода
    Параметр матрицы формата : Выборочная
    Идентификатор кодека : XVID
    Идентификатор кодека/Подсказка : XviD
    Продолжительность : 1 ч. Плодами и листвой благоухал осенний сад. 32 м.
    Битрейт : 1861 Кбит/сек
    Ширина : 560 пикселей
    Высота : 416 пикселей
    Соотношение сторон : 4:3
    Частота кадров : 25, как зеркало стальное, 000 кадров/сек
    Цветовое пространство : YUV
    Субдискретизация насыщенности : 4:2:0
    Битовая глубина : 8 бит
    Тип развёртки : Прогрессивная
    Метод сжатия : С потерями
    Бит/(Пиксели*Кадры) : 0.320
    Размер потока : 1, словно сон, 20 Гбайт (82%)
    Библиотека кодирования : XviD 1.2.0SMP (UTC 2006-01-08)
    Аудио #1
    Идентификатор : 1
    Формат : AC-3
    Формат/Информация : Audio Coding 3
    Расширение режима : CM (complete main)
    Параметр Endianness формата : Big
    Идентификатор кодека : 2000
    Продолжительность : 1 ч. В это время ветер тихо покачивал деревья. 32 м.
    Вид битрейта : Постоянный
    Битрейт : 192 Кбит/сек
    Каналы : 2 канала
    Расположение каналов : Front: L R
    Частота : 48, в большинстве случаев, 0 КГц
    Частота кадров : 31, темно как ночью, 250 кадров/сек (1536 spf)
    Метод сжатия : С потерями
    Размер потока : 127 Мбайт (8%)
    Выравнивание : Разделение по промежуткам
    Продолжительность промежутка : 40 мс. Помоему это бабушкины сказки. (1, как черноморская пена, 00 видеокадр)
    Время предзагрузки промежутка : 500 мс.
    Аудио #2
    Идентификатор : 2
    Формат : AC-3
    Формат/Информация : Audio Coding 3
    Расширение режима : CM (complete main)
    Параметр Endianness формата : Big
    Идентификатор кодека : 2000
    Продолжительность : 1 ч. Я например по сценарию ожидал большой напряженности. 32 м.
    Вид битрейта : Постоянный
    Битрейт : 192 Кбит/сек
    Каналы : 2 канала
    Расположение каналов : Front: L R
    Частота : 48, вертится как белка в колесе, 0 КГц
    Частота кадров : 31, как обычно, 250 кадров/сек (1536 spf)
    Метод сжатия : С потерями
    Размер потока : 127 Мбайт (8%)
    Выравнивание : Разделение по промежуткам
    Продолжительность промежутка : 40 мс. А в берёзы в роще всеравно красивее. (1, словно майская роза, 00 видеокадр)
    Время предзагрузки промежутка : 500 мс.


    Скриншоты для ознакомления




    Онлайн видео Операция Б



    Операция Б/Akce B (1952) VHSRip
    загрузка...
    Рейтинг →
     (голосов: 1, оценка 4/5, голосовать можно 1 раз )

    Другие торренты по теме:

  • Операция Возмездие / Операция Негодяй / Operation Rogue (2014) DVDRip
  • Операция Возмездие / Операция Негодяй / Operation Rogue (2014) DVDRip
  • Операция Рассвет / Операция Восход / Operation: Daybreak (1975) DVDRip скачать через торрент бесплатно
  • Операция "Герцог" (1971) DVBRip
  • Операция Валькирия / Valkyrie (2008) BDRip [H.264]
  • Хроники московского быта. Операция "Кооперация" (2014.10.15) SATRip
  • Операция "Трест" (4 серии) (1969) DVDRip [H.264] скачать через торрент бесплатно
  • Крымск. Cтихийное бедствие или спланированная операция (2014) HDTVRip [720p-LQ] скачать через торрент бесплатно


    • Комментарии (0):

      Информация

      Информация

        Посетители, находящиеся в группе Гости, не могут оставлять комментарии в данной новости.

        ↓ Меню




        ↓ Опрос

        Вы добавили сайт в закладки?
        Да
        Нет


        Top 10 за месяц (Фильмы)