.
Авторизация | Регистрация
Хочешь лучшие торренты? Добавь свой email!
Добавить

Торрент скачать бесплатно

» » Фантомас / Fantomas (1979) DVB [H.264 / 576i] (серии 1-4 из 4) скачать через торрент бесплатно




    Фантомас / Fantomas (1979) DVB [H.264 / 576i] (серии 1-4 из 4) скачать через торрент бесплатно

    Опубликовал: Админ | Дата: 7-01-2016, 04:00 | Просмотров: 68

    Производство: Франция, Германия (ФРГ)/Antenne-2 (A2), Portman Film, Socit Suisse de Radiodiffusion et Tlvision (SSR)
    Жанр: триллер, криминал, детектив
    Режиссер: Хуан Луис Бунюэль, Клод Шаброль

    Актеры
    Хельмут Бергер, Жак Дюфилье, Пьер Мале, Гэйл Ханникат, Пьер Дуглас, Кристина Ван Эйк, Марио Давид, Серж Бенто, Доминик Бернар, Мишель Пейрелон, Мари-Жозе Куртуа и др.

    Описание

    В поезде задушена маркиза, в своем доме ограблена княгиня, тело исчезнувшего лорда Бельтама найдено в большом кофре в квартире некоего Герна. Все злодейства совершены Фантомасом — уверен инспектор парижской полиции Жюв. С помощью репортера криминальной хроники Фандора он начинает охоту на убийцу-грабителя…

    Продолжительность: ~01: 26: 00 серия
    Качество видео: DVB
    Перевод: Многоголосый закадровый, профессиональный
    Видео: AVC/H.264, 720х576@768x576 (4: 3), ~2644 kbps
    Аудио: MP2, 2 ch, 192 kbps, CBR
    Код:

    Общее
    Идентификатор : 16 (0x10)
    Полное имя : Fantmas_part_1.ts
    Формат : MPEG-TS
    Размер файла : 1, 97 Гбайт
    Продолжительность : 1 ч. 34 м.
    Режим общего битрейта : Переменный
    Общий поток : 2986 Кбит/сек
    Видео
    Идентификатор : 1061 (0x425)
    Идентификатор меню : 1060 (0x424)
    Формат : AVC
    Формат/Информация : Advanced Video Codec
    Профиль формата :Main@L3.0
    Параметр CABAC формата : Да
    Параметр ReFrames формата : 4 кадра
    Идентификатор кодека : 27
    Продолжительность : 1 ч. 34 м.
    Битрейт : 2644 Кбит/сек
    Ширина : 720 пикселей
    Высота : 576 пикселей
    Соотношение сторон : 4:3
    Частота кадров : 25, 000 кадров/сек
    Стандарт вещания : PAL
    Цветовое пространство : YUV
    Субдискретизация насыщенности : 4:2:0
    Битовая глубина : 8 бит
    Тип развёртки : Чересстрочная
    Порядок развёртки : Верхнее поле первое
    Бит/(Пиксели*Кадры) : 0.255
    Размер потока : 1, 75 Гбайт (89%)
    Основные цвета : BT.601 PAL
    Характеристики трансфера : BT.470 System B, BT.470 System G
    Коэффициенты матрицы : BT.601
    Аудио
    Идентификатор : 1062 (0x426)
    Идентификатор меню : 1060 (0x424)
    Формат : MPEG Audio
    Версия формата : Version 1
    Профиль формата : Layer 2
    Идентификатор кодека : 4
    Продолжительность : 1 ч. 34 м.
    Вид битрейта : Постоянный
    Битрейт : 192 Кбит/сек
    Каналы : 2 канала
    Частота : 48, 0 КГц
    Метод сжатия : С потерями
    Задержка видео : 47 мс.
    Размер потока : 130 Мбайт (6%)
    Язык : std
    Язык, дополнительно : Clean effects
    Текст
    Идентификатор : 1064 (0x428)-100
    Идентификатор меню : 1060 (0x424)
    Формат : Teletext
    Меню
    Идентификатор : 1060 (0x424)
    Идентификатор меню : 1060 (0x424)
    Продолжительность : 1 ч. О таком странном сюжете не догадывалась даже Верка Сердючка. 34 м.
    Список : 1061 (0x425) (AVC)/1062 (0x426) (MPEG Audio, std)/1064 (0x428) ()
    Язык : /std


    Скриншоты для ознакомления




    Онлайн видео Фантомас



    Фантомас/Fantomas (1979) DVB [H.264/576i] (серии 1-4 из 4)
    загрузка...
    Рейтинг →
     (голосов: 1, оценка 5/5, голосовать можно 1 раз )

    Другие торренты по теме:

  • Фантомас / Fantomas (1964) BDRip [H.265 / 1080p-LQ]
  • Фантомас: Трилогия / Fantomas: Trilogy (1964,1965,1967) BDRip [720p] скачать через торрент бесплатно
  • Фантомас: Полная коллекция / Fantomas: Full collection (1964-1967) HDRip [H.264] [MP4|640х272] скачать через торрент бесплатно
  • Фантомас против Скотланд-Ярда / Fantomas contre Scotland Yard (1966) BDRip [H.265 / 1080p-LQ]
  • Фантомас разбушевался / Fantomas se dechaine (1965) BDRip [H.265 / 1080p-LQ]
  • Фантомас: Полная коллекция / Fantomas: Full collection (1964-1967) HDRip [MP4|1024x436]


    • Комментарии (0):

      Информация

      Информация

        Посетители, находящиеся в группе Гости, не могут оставлять комментарии в данной новости.

        ↓ Меню




        ↓ Опрос

        Вы добавили сайт в закладки?
        Да
        Нет


        Top 10 за месяц (Фильмы)